<?xml version="1.0" standalone="no"?>
<!DOCTYPE svg PUBLIC "-//W3C//DTD SVG 1.1//EN" "http://www.w3.org/Graphics/SVG/1.1/DTD/svg11.dtd">
<svg xmlns="http://www.w3.org/2000/svg">
<defs >
<font id="Sora" horiz-adv-x="590" ><font-face
    font-family="Sora"
    units-per-em="1000"
    panose-1="0 0 0 0 0 0 0 0 0 0"
    ascent="970"
    descent="-290"
    alphabetic="0" />
<glyph unicode=" " horiz-adv-x="210" />
<glyph unicode="!" horiz-adv-x="317" d="M77 247V730H241V247H77ZM65 0V161H253V0H65Z" />
<glyph unicode="&quot;" horiz-adv-x="495" d="M62 421V730H207V421H62ZM289 421V730H434V421H289Z" />
<glyph unicode="#" horiz-adv-x="722" d="M115 0L228 730H355L242 0H115ZM369 0L482 730H608L495 0H369ZM33 185V291H650V185H33ZM72 439V545H689V439H72Z" />
<glyph unicode="$" horiz-adv-x="651" d="M328 -4Q230 -4 165 24T67 105T34 229H181Q181 201 196 177T244 138T328 123Q396 123 432 147T469 211Q469 246 438 268T339 298L288 302Q181 312 118 366T55 521Q55 590 86 636T175 706T314 730Q401 730 460 703T549
625T580 501H433Q433 530 420 552T380 589T314 603Q279 603 254 593T216 565T203 521Q203 490 226 466T302 435L353 431Q473 421 545 366T617 211Q617 142 583 94T485 21T328 -4ZM257 -129V17H388V-129H257ZM253 681V827H384V681H253Z" />
<glyph unicode="%" horiz-adv-x="891" d="M247 0L513 730H647L382 0H247ZM197 329Q138 329 99 355T40 426T20 525V551Q20 608 40 652T100 721T197 746Q255 746 294 721T354 652T374 551V525Q374 471 355 427T296 356T197 329ZM197 436Q228 436 242 458T257 537Q257
596 242 618T197 640Q167 640 152 618T137 538Q137 482 152 459T197 436ZM694 -17Q634 -17 595 9T537 79T517 178V204Q517 262 537 306T596 375T694 400Q752 400 791 375T850 306T870 204V178Q870 124 851 80T793 9T694 -17ZM694 89Q725 89 739 111T754 190Q754
250 739 271T694 293Q664 293 649 272T633 191Q633 135 648 112T694 89Z" />
<glyph unicode="&amp;" horiz-adv-x="731" d="M532 0L253 301Q207 351 180 388T141 461T129 537Q129 599 156 644T239 714T386 740Q423 740 461 737T529 728V596Q509 599 480 602T423 606T376 608Q317 608 297 587T277 529Q277 495 293 464T348 391L709 0H532ZM293
-21Q212 -21 152 10T57 96T23 218V232Q23 305 64 362T170 448L235 364Q208 346 190 313T171 234Q171 199 185 171T229 127T302 111Q360 111 408 142T486 240T516 415H656Q656 309 628 228T549 92T432 8T293 -21ZM422 394V511H706V394H422Z" />
<glyph unicode="&apos;" horiz-adv-x="268" d="M62 421V730H207V421H62Z" />
<glyph unicode="(" horiz-adv-x="393" d="M204 -182Q157 -121 122 -51T67 107T48 303Q48 412 68 497T125 651T208 776H386Q335 711 294 639T230 483T207 303Q207 206 225 122T283 -38T386 -182H204Z" />
<glyph unicode=")" horiz-adv-x="393" d="M189 -182Q236 -121 271 -51T326 107T345 303Q345 412 325 497T268 651T185 776H7Q58 711 99 639T163 483T186 303Q186 206 168 122T110 -38T7 -182H189Z" />
<glyph unicode="*" horiz-adv-x="570" d="M472 363L320 474V588L472 699L532 593L410 543V519L532 470L472 363ZM329 784L309 597L210 540L38 616L100 720L204 640L225 652L207 782L329 784ZM38 447L210 523L309 466L329 279L207 280L225 410L204 422L101 342L38 447Z" />
<glyph unicode="+" horiz-adv-x="596" d="M227 93V596H369V93H227ZM50 279V409H547V279H50Z" />
<glyph unicode="," horiz-adv-x="273" d="M130 -171L7 -123L112 183L248 133L130 -171Z" />
<glyph unicode="-" horiz-adv-x="509" d="M44 212V354H465V212H44Z" />
<glyph unicode="." horiz-adv-x="273" d="M48 0V179H224V0H48Z" />
<glyph unicode="/" horiz-adv-x="407" d="M18 -60L225 780H389L182 -60H18Z" />
<glyph unicode="0" horiz-adv-x="763" d="M382 -19Q295 -19 233 9T133 87T76 200T57 337V394Q57 494 92 575T199 704T382 752Q493 752 564 704T671 575T706 394V337Q706 265 688 201T631 87T531 10T382 -19ZM382 132Q463 132 502 188T542 364Q542 490 502 545T382
601Q301 601 261 546T221 366Q221 246 260 189T382 132Z" />
<glyph unicode="1" horiz-adv-x="428" d="M176 0V622L220 588H33V730H339V0H176Z" />
<glyph unicode="2" horiz-adv-x="632" d="M60 0V150Q60 197 75 232T125 294T215 346L333 397Q378 416 399 444T421 515Q421 559 394 587T315 615Q263 615 236 586T209 508H50Q50 577 80 632T169 720T315 752Q402 752 460 721T549 638T580 521V509Q580 425 534
371T392 274L275 223Q245 210 233 196T220 158V108L181 141H581V0H60Z" />
<glyph unicode="3" horiz-adv-x="632" d="M310 -19Q225 -19 163 12T67 98T34 220H192Q192 174 223 146T310 117Q347 117 373 131T413 169T427 225Q427 273 397 304T310 335Q280 335 258 326T219 304L145 429L366 573L357 590H64V730H556V578L301 416L221 438Q241
444 263 447T312 451Q397 451 458 423T552 345T586 227V215Q586 148 553 95T458 12T310 -19Z" />
<glyph unicode="4" horiz-adv-x="672" d="M33 140V311L310 751L437 668L200 291L214 270H651V140H33ZM416 0V526H567V0H416Z" />
<glyph unicode="5" horiz-adv-x="644" d="M326 -19Q239 -19 176 14T80 105T46 231H204Q204 197 219 172T263 132T327 117Q367 117 394 133T437 178T452 243Q452 280 438 308T396 354T329 371Q293 371 264 356T221 318H67L104 730H547V590H169L232 632L210 395L172
405Q202 441 244 465T356 490Q436 490 492 458T579 371T610 249V236Q610 169 577 111T481 17T326 -19Z" />
<glyph unicode="6" horiz-adv-x="687" d="M359 -21Q278 -21 220 5T126 80T72 192T54 327V369Q54 551 147 643T421 736Q458 736 494 734T564 728V591Q531 594 493 596T415 599Q335 599 289 573T224 493T205 362V286L169 262Q170 337 199 387T281 463T401 488Q478
488 534 458T620 372T650 242Q650 163 614 104T513 12T359 -21ZM354 115Q398 115 428 131T475 174T492 239Q492 277 476 304T431 347T358 363Q319 363 287 350T235 309T216 239Q216 203 231 175T278 131T354 115Z" />
<glyph unicode="7" horiz-adv-x="607" d="M143 0L399 581L388 596H33V730H586V626L317 0H143ZM33 478V730H166V478H33Z" />
<glyph unicode="8" horiz-adv-x="667" d="M333 -21Q245 -21 180 5T78 81T41 203Q41 249 56 284T98 345T163 384V397Q135 409 112 429T76 480T63 550Q63 618 98 662T195 728T333 751Q411 751 472 729T568 662T603 550Q603 510 591 480T555 430T503 397V384Q540
370 568 345T611 285T626 203Q626 131 590 81T488 5T333 -21ZM333 114Q374 114 404 126T451 162T468 222Q468 257 452 280T405 316T333 329Q293 329 263 317T216 281T200 222Q200 187 216 163T262 126T333 114ZM333 450Q385 450 415 471T445 534Q445 575 415 596T333
617Q281 617 251 596T221 534Q221 493 251 472T333 450Z" />
<glyph unicode="9" horiz-adv-x="687" d="M328 751Q409 751 467 725T561 650T615 538T633 403V361Q633 179 540 87T266 -6Q229 -6 193 -4T123 2V139Q156 136 194 134T272 131Q352 131 398 157T463 237T482 368V444L518 468Q517 393 488 343T406 267T286 242Q209
242 153 272T67 358T37 488Q37 567 73 626T174 718T328 751ZM333 615Q289 615 259 599T212 556T195 491Q195 453 211 426T256 383T329 367Q368 367 400 380T452 421T471 491Q471 527 456 555T409 599T333 615Z" />
<glyph unicode=":" horiz-adv-x="273" d="M48 0V179H224V0H48ZM48 333V512H224V333H48Z" />
<glyph unicode=";" horiz-adv-x="273" d="M131 -171L8 -123L113 183L249 133L131 -171ZM54 333V512H230V333H54Z" />
<glyph unicode="&lt;" horiz-adv-x="596" d="M526 577V442L70 302V432L526 577ZM70 357L526 218V80L70 225V357ZM185 368V286H155V368H185Z" />
<glyph unicode="=" d="M50 373V503H541V373H50ZM50 157V287H541V157H50Z" />
<glyph unicode="&gt;" horiz-adv-x="596" d="M70 80V215L526 355V225L70 80ZM526 300L70 439V577L526 432V300ZM411 289V371H441V289H411Z" />
<glyph unicode="?" horiz-adv-x="563" d="M178 245V419H271Q324 419 350 447T376 517Q376 546 365 567T332 601T280 614Q248 614 226 601T192 565T180 515H27Q27 581 56 634T144 720T284 752Q360 752 415 724T500 645T530 530V518Q530 454 500 406T411 330T270
300L339 355L337 245H178ZM166 0V161H348V0H166Z" />
<glyph unicode="@" horiz-adv-x="1127" d="M567 -246Q456 -246 362 -211T197 -112T89 45T50 251Q50 363 86 454T191 612T356 714T572 750Q674 750 764 721T924 635T1032 493T1072 299Q1072 212 1045 144T968 38T845 -1Q794 -1 756 19T698 78T678 169V224H710Q707
153 682 104T614 30T514 5Q452 5 402 35T323 118T294 244V260Q294 332 322 384T399 464T509 493Q568 493 612 467T682 395T711 283H690V475H804V179Q804 158 810 144T827 123T854 116Q883 116 903 137T935 199T947 295Q947 383 917 446T835 551T716 613T573 633Q480
633 406 606T281 529T202 409T175 251Q175 134 225 50T363 -80T567 -126Q599 -126 635 -123T702 -112V-233Q672 -239 636 -242T567 -246ZM543 122Q576 122 601 136T642 178T657 245V265Q657 300 642 325T601 363T543 377Q509 377 483 361T444 317T430 252Q430 215
443 186T482 139T543 122Z" />
<glyph unicode="A" horiz-adv-x="782" d="M13 0L254 730H519L769 0H599L397 617L449 596H320L374 617L177 0H13ZM196 181L246 317H532L583 181H196Z" />
<glyph unicode="B" horiz-adv-x="692" d="M222 -5V123H393Q439 123 462 147T485 215Q485 259 462 282T393 306H222V405H385Q461 405 520 387T613 327T647 216V202Q647 137 617 91T529 20T385 -5H222ZM82 -5V736H242V-5H82ZM222 332V430H366Q413 430 434 454T455
518Q455 560 434 584T366 608H222V736H356Q482 736 549 683T617 532V517Q617 449 583 408T490 350T356 332H222Z" />
<glyph unicode="C" horiz-adv-x="800" d="M417 -19Q318 -19 247 15T131 106T65 228T43 356V378Q43 446 65 512T132 633T247 719T412 752Q511 752 587 715T708 613T762 459H597Q590 503 565 534T501 582T412 599Q363 599 325 582T262 534T223 461T209 366Q209 315
222 273T262 199T328 151T417 134Q493 134 545 171T609 273H773Q764 193 720 127T599 21T417 -19Z" />
<glyph unicode="D" horiz-adv-x="781" d="M226 -4V149H362Q413 149 454 164T524 208T568 277T583 367Q583 418 568 458T524 526T454 568T362 583H226V736H353Q452 736 526 707T650 628T724 514T749 378V356Q749 290 725 226T650 110T526 27T353 -4H226ZM82 -4V736H246V-4H82Z"
/>
<glyph unicode="E" horiz-adv-x="594" d="M82 0V730H242V0H82ZM222 0V136H541V0H222ZM222 303V439H518V303H222ZM222 594V730H534V594H222Z" />
<glyph unicode="F" horiz-adv-x="560" d="M82 0V730H246V0H82ZM226 294V430H508V294H226ZM226 594V730H520V594H226Z" />
<glyph unicode="G" horiz-adv-x="833" d="M428 -19Q330 -19 257 13T137 101T66 223T43 357V379Q43 448 66 514T135 634T251 720T412 752Q511 752 587 716T709 615T762 465H598Q592 505 567 535T502 582T412 599Q364 599 327 582T263 534T223 461T209 367Q209 314
223 271T266 196T335 147T428 130Q496 130 546 158T618 232L598 120V294H749V138Q702 62 620 22T428 -19ZM407 262V380H809V262H407Z" />
<glyph unicode="H" horiz-adv-x="800" d="M554 0V730H718V0H554ZM82 0V730H246V0H82ZM217 295V439H583V295H217Z" />
<glyph unicode="I" horiz-adv-x="332" d="M84 0V730H248V0H84Z" />
<glyph unicode="J" horiz-adv-x="643" d="M303 -19Q220 -19 160 12T67 104T34 250V287H196V241Q196 193 224 164T303 134Q352 134 380 163T409 241V607H573V250Q573 164 541 104T448 13T303 -19ZM119 587V730H573V587H119Z" />
<glyph unicode="K" horiz-adv-x="752" d="M562 0L310 341H209L515 730H703L428 381L426 452L760 0H562ZM82 0V730H246V0H82Z" />
<glyph unicode="L" horiz-adv-x="558" d="M82 0V730H246V0H82ZM226 0V144H532V0H226Z" />
<glyph unicode="M" horiz-adv-x="971" d="M82 0V730H308L475 320H494L659 730H889V0H727V623L750 621L557 148H401L207 621L232 623V0H82Z" />
<glyph unicode="N" horiz-adv-x="876" d="M82 0V730H351L626 133H660L640 115V730H794V0H523L248 597H214L234 615V0H82Z" />
<glyph unicode="O" horiz-adv-x="864" d="M432 -19Q333 -19 260 15T138 106T67 229T43 356V378Q43 446 67 512T141 633T263 719T432 752Q528 752 601 720T723 633T797 513T822 378V356Q822 295 798 229T726 107T605 16T432 -19ZM432 134Q484 134 525 152T596 202T641
276T656 366Q656 417 641 459T596 533T525 582T432 599Q380 599 339 582T269 534T224 460T209 366Q209 318 224 276T268 202T339 152T432 134Z" />
<glyph unicode="P" horiz-adv-x="667" d="M226 209V351H357Q395 351 422 366T465 408T480 472Q480 510 465 537T423 579T357 594H226V736H349Q442 736 508 705T610 617T646 480V464Q646 386 611 329T509 240T349 209H226ZM82 0V736H246V0H82Z" />
<glyph unicode="Q" horiz-adv-x="864" d="M575 -218Q507 -218 458 -202T381 -144T353 -24V88H506V-31Q506 -60 522 -75T568 -91H677V-218H575ZM432 -19Q333 -19 260 15T138 106T67 229T43 356V378Q43 446 67 512T141 633T263 719T432 752Q528 752 601 720T723
633T797 513T822 378V356Q822 295 798 229T726 107T605 16T432 -19ZM432 134Q484 134 525 152T596 202T641 276T656 366Q656 417 641 459T596 533T525 582T432 599Q380 599 339 582T269 534T224 460T209 366Q209 318 224 276T268 202T339 152T432 134Z" />
<glyph unicode="R" horiz-adv-x="730" d="M82 0V736H246V0H82ZM525 0L311 314H491L715 0H525ZM202 234V363H382Q418 363 444 377T485 418T500 480Q500 515 486 541T445 582T382 597H202V736H369Q460 736 527 709T630 627T666 491V475Q666 394 630 341T527 261T369
234H202Z" />
<glyph unicode="S" horiz-adv-x="667" d="M336 -19Q237 -19 169 12T66 98T31 224H190Q190 196 205 172T253 134T336 119Q382 119 413 131T460 164T476 214Q476 249 446 269T349 296L294 301Q185 310 120 369T55 525Q55 595 88 646T182 724T324 752Q410 752 471
723T566 640T599 514H439Q439 541 426 563T388 600T324 614Q288 614 264 602T227 570T215 525Q215 494 237 471T309 444L365 439Q445 432 506 405T601 330T636 214Q636 144 600 92T496 10T336 -19Z" />
<glyph unicode="T" horiz-adv-x="618" d="M227 0V607H391V0H227ZM22 587V730H597V587H22Z" />
<glyph unicode="U" horiz-adv-x="776" d="M388 -19Q285 -19 214 19T105 129T68 297V730H232V291Q232 243 250 208T303 153T388 134Q439 134 473 153T526 207T544 291V730H708V297Q708 200 671 129T563 20T388 -19Z" />
<glyph unicode="V" horiz-adv-x="740" d="M243 0L21 730H190L366 114L328 133H430L390 114L553 730H717L510 0H243Z" />
<glyph unicode="W" horiz-adv-x="1071" d="M201 0L21 730H190L331 110L296 133H387L348 110L457 703H593L450 0H201ZM636 0L482 703H625L751 110L713 133H800L767 110L890 730H1050L890 0H636Z" />
<glyph unicode="X" horiz-adv-x="722" d="M9 0L258 389L260 372L30 730H210L352 502H375L515 730H690L459 370L456 386L713 0H532L366 258H342L184 0H9Z" />
<glyph unicode="Y" horiz-adv-x="657" d="M220 277L7 730H175L328 391L299 400H383L352 391L490 730H649L453 277H220ZM256 0V300H417V0H256Z" />
<glyph unicode="Z" horiz-adv-x="647" d="M38 0V123L418 591L421 571L389 613L411 596H51V730H612V607L231 139L227 161L261 116L237 135H612V0H38Z" />
<glyph unicode="[" horiz-adv-x="393" d="M86 -182V776H240V-182H86ZM192 -182V-49H351V-182H192ZM192 643V776H351V643H192Z" />
<glyph unicode="\" horiz-adv-x="407" d="M232 -60L13 780H175L394 -60H232Z" />
<glyph unicode="]" horiz-adv-x="393" d="M307 -182V776H153V-182H307ZM201 -182V-49H42V-182H201ZM201 643V776H42V643H201Z" />
<glyph unicode="^" horiz-adv-x="617" d="M50 311L212 738H406L568 311H433L323 623H298L188 311H50Z" />
<glyph unicode="_" d="M0 -171V-51H590V-171H0Z" />
<glyph unicode="`" horiz-adv-x="300" d="M113 612L0 821H169L257 612H113Z" />
<glyph unicode="a" horiz-adv-x="594" d="M404 0V162H377V338Q377 380 357 401T293 422Q271 422 235 421T161 418T92 414V549Q115 551 146 553T210 556T272 557Q356 557 413 533T501 461T531 336V0H404ZM229 -14Q170 -14 126 7T56 67T31 162Q31 222 62 260T149
317T278 336H395V247H277Q235 247 213 227T190 171Q190 138 212 118T277 97Q304 97 325 106T361 139T377 203L415 163Q410 106 388 67T326 7T229 -14Z" />
<glyph unicode="b" horiz-adv-x="703" d="M410 -18Q343 -18 292 10T212 93T181 225H200V0H73V730H233V359L195 311Q198 394 226 450T305 535T419 564Q475 564 520 544T598 486T647 397T665 286V264Q665 204 648 153T597 64T516 4T410 -18ZM368 116Q409 116 439
136T487 192T504 275Q504 322 487 357T440 411T368 431Q332 431 300 414T249 366T229 289V252Q229 209 249 179T302 132T368 116Z" />
<glyph unicode="c" horiz-adv-x="611" d="M319 -19Q248 -19 196 4T108 68T56 158T39 263V282Q39 338 57 389T110 481T197 544T318 567Q392 567 449 539T540 459T578 342H421Q417 379 392 404T318 430Q278 430 252 410T212 355T199 272Q199 228 211 193T249 138T319
118Q351 118 373 129T409 161T426 209H582Q579 141 544 90T451 10T319 -19Z" />
<glyph unicode="d" horiz-adv-x="703" d="M299 -18Q241 -18 194 3T111 61T58 150T39 260V283Q39 342 56 393T107 482T188 542T293 564Q359 564 407 536T482 452T512 315L470 354V730H631V0H504V227H526Q523 149 494 94T414 11T299 -18ZM339 116Q376 116 406 132T455
181T474 258V295Q474 339 455 369T405 415T338 431Q298 431 267 411T217 355T199 272Q199 224 217 189T267 135T339 116Z" />
<glyph unicode="e" horiz-adv-x="624" d="M324 -19Q254 -19 201 5T112 69T58 160T39 264V284Q39 339 57 389T111 480T198 543T318 567Q406 567 466 528T559 425T591 286V232H106V323H494L442 281Q442 330 428 365T387 418T318 437Q276 437 247 418T203 363T188
273Q188 224 202 188T246 131T324 111Q368 111 396 128T434 170H581Q569 115 534 72T446 5T324 -19Z" />
<glyph unicode="f" horiz-adv-x="382" d="M85 0V553Q85 648 139 694T298 740H368V620H291Q264 620 249 605T234 563V0H85ZM20 420V537H376V420H20Z" />
<glyph unicode="g" horiz-adv-x="686" d="M289 -218Q249 -218 207 -215T130 -207V-72Q165 -77 207 -80T285 -84Q350 -84 390 -69T450 -24T469 55V164L498 228Q496 155 470 103T396 24T284 -4Q228 -4 183 16T105 74T56 160T39 268V291Q39 349 57 399T109 486T190
543T294 564Q360 564 408 535T485 450T515 315L493 309V548H620V65Q620 -36 584 -98T475 -189T289 -218ZM334 131Q371 131 401 147T448 195T466 270V299Q466 342 448 371T399 416T335 432Q295 432 264 413T216 360T199 280Q199 233 216 200T264 149T334 131Z" />
<glyph unicode="h" horiz-adv-x="652" d="M73 0V730H233V309H209Q209 392 230 449T292 535T395 565H402Q493 565 541 501T589 312V0H429V322Q429 367 403 394T333 422Q288 422 261 393T233 316V0H73Z" />
<glyph unicode="i" horiz-adv-x="334" d="M99 0V548H259V0H99ZM26 430V548H259V430H26ZM161 602Q116 602 95 625T73 685Q73 722 94 745T161 769Q206 769 227 746T249 685Q249 649 228 626T161 602Z" />
<glyph unicode="j" horiz-adv-x="339" d="M4 -205V-70H39Q76 -70 95 -51T114 5V548H269V10Q269 -69 245 -116T168 -184T33 -205H4ZM38 430V548H269V430H38ZM171 604Q126 604 105 627T83 687Q83 724 104 747T171 771Q217 771 238 748T259 687Q259 651 238 628T171 604Z" />
<glyph unicode="k" horiz-adv-x="639" d="M459 0L286 256H209L432 548H600L390 276L392 354L639 0H459ZM73 0V730H233V0H73Z" />
<glyph unicode="l" horiz-adv-x="315" d="M80 0V730H241V0H80ZM15 612V730H241V612H15Z" />
<glyph unicode="m" horiz-adv-x="983" d="M73 0V548H200V312H191Q191 396 212 452T275 536T378 565H385Q447 565 488 537T551 452T573 312H534Q534 396 555 452T619 536T722 565H729Q791 565 833 537T898 452T920 312V0H760V321Q760 366 737 394T670 422Q627 422
602 394T577 318V0H416V321Q416 366 393 394T327 422Q283 422 258 394T233 318V0H73Z" />
<glyph unicode="n" horiz-adv-x="652" d="M73 0V548H200V313H191Q191 397 212 453T278 537T385 565H392Q488 565 538 503T589 313V0H429V322Q429 366 403 394T333 422Q288 422 261 394T233 319V0H73Z" />
<glyph unicode="o" horiz-adv-x="681" d="M340 -19Q268 -19 212 3T118 65T59 154T39 261V284Q39 341 59 392T119 483T215 544T340 567Q411 567 466 545T561 483T621 393T642 284V261Q642 205 622 155T564 65T469 4T340 -19ZM340 116Q387 116 418 136T465 192T482
272Q482 319 465 354T417 411T340 432Q296 432 264 411T216 355T199 272Q199 228 215 192T263 136T340 116Z" />
<glyph unicode="p" horiz-adv-x="703" d="M73 -200V548H200V311L183 312Q187 394 217 450T298 535T413 564Q470 564 516 543T596 485T647 397T665 286V263Q665 204 648 153T599 63T520 4T413 -18Q351 -18 302 7T222 85T189 219L233 159V-200H73ZM368 116Q409 116
439 136T487 192T504 275Q504 322 487 357T440 411T368 431Q332 431 300 414T249 366T229 289V252Q229 209 249 179T302 132T368 116Z" />
<glyph unicode="q" horiz-adv-x="703" d="M470 -200V162L513 220Q511 146 484 93T407 11T292 -18Q235 -18 188 3T108 62T57 151T39 261V284Q39 343 57 394T110 483T192 542T298 564Q366 564 415 535T493 450T523 314H504V548H631V-200H470ZM339 117Q376 117 406
133T455 182T474 259V296Q474 340 455 370T405 416T339 432Q298 432 267 412T217 356T199 272Q199 225 217 190T266 136T339 117Z" />
<glyph unicode="r" horiz-adv-x="421" d="M73 0V548H200V313H197Q197 429 246 492T390 555H411V417H371Q305 417 269 382T233 279V0H73Z" />
<glyph unicode="s" horiz-adv-x="556" d="M281 -17Q164 -17 98 31T28 166H170Q174 140 201 120T284 99Q326 99 353 113T381 155Q381 179 360 193T285 214L242 218Q143 228 94 273T44 388Q44 446 73 485T153 544T271 564Q377 564 442 518T510 383H368Q364 410 340
428T269 447Q232 447 210 433T188 395Q188 372 207 360T269 343L312 339Q413 328 469 283T525 162Q525 107 495 67T410 5T281 -17Z" />
<glyph unicode="t" horiz-adv-x="434" d="M322 -7Q239 -7 188 13T114 82T90 214V696H239V208Q239 169 259 149T318 128H399V-7H322ZM7 431V548H399V431H7Z" />
<glyph unicode="u" horiz-adv-x="645" d="M258 -17Q163 -17 112 44T61 230V548H221V222Q221 178 246 152T313 126Q356 126 383 153T410 226V548H570V0H443V231H454Q454 148 433 93T369 10T265 -17H258Z" />
<glyph unicode="v" horiz-adv-x="597" d="M179 0L15 548H180L334 0H179ZM229 0V133H390V0H229ZM288 0L421 548H575L433 0H288Z" />
<glyph unicode="w" horiz-adv-x="922" d="M274 0L374 530H549L665 0H541L422 526H493L386 0H274ZM236 0L235 133H345L346 0H236ZM164 0L17 548H174L311 0H164ZM582 0L583 133H693V0H582ZM627 0L749 548H896L764 0H627Z" />
<glyph unicode="x" horiz-adv-x="601" d="M12 0L182 294L178 269L18 548H191L290 362H306L399 548H562L409 267L413 288L593 0H419L301 199H285L174 0H12Z" />
<glyph unicode="y" horiz-adv-x="570" d="M67 -217V-81H181Q207 -81 225 -75T254 -53T272 -12L407 548H559L406 -44Q390 -108 362 -146T286 -200T165 -217H67ZM239 12V137H355V12H239ZM173 12L5 548H166L325 12H173Z" />
<glyph unicode="z" horiz-adv-x="502" d="M37 0V112L294 420V404L270 434L288 425H38V548H469V436L212 128V143L236 113L218 123H477V0H37Z" />
<glyph unicode="{" horiz-adv-x="393" d="M332 -182Q234 -182 176 -135T118 14V167Q118 198 99 213T43 228V370Q80 370 99 385T118 431V581Q118 683 176 729T332 776H357V643H332Q299 643 285 627T270 580V426Q270 367 244 339T167 306V292Q218 288 244 260T270
173V14Q270 -16 284 -32T332 -49H357V-182H332Z" />
<glyph unicode="|" horiz-adv-x="376" d="M120 -200V730L256 731V-199L120 -200Z" />
<glyph unicode="}" horiz-adv-x="393" d="M61 -182Q159 -182 217 -135T275 14V167Q275 198 294 213T350 228V370Q313 370 294 385T275 431V581Q275 683 217 729T61 776H36V643H61Q94 643 108 627T123 580V426Q123 367 149 339T226 306V292Q175 288 149 260T123
173V14Q123 -16 109 -32T61 -49H36V-182H61Z" />
<glyph unicode="~" horiz-adv-x="543" d="M373 216Q337 216 308 229T255 259T210 289T168 302Q148 302 134 287T113 237L20 236Q23 303 45 345T101 407T170 427Q206 427 235 414T288 383T333 353T376 340Q396 340 410 355T430 405H523Q521 338 499 296T443 235T373 216Z" />
<glyph unicode="&#xa0;" horiz-adv-x="210" />
<glyph unicode="&#xa1;" horiz-adv-x="317" d="M77 301V-182H241V301H77ZM65 548V387H253V548H65Z" />
<glyph unicode="&#xa2;" horiz-adv-x="611" d="M316 93Q249 93 198 114T111 171T57 254T39 354V374Q39 429 57 477T111 561T198 617T316 638Q390 638 446 612T536 538T575 422H423Q418 458 390 481T316 505Q279 505 252 488T209 440T194 364Q194 322 207 291T248
243T316 226Q363 226 392 250T427 313H579Q575 246 541 197T450 120T316 93ZM253 0V146H384V0H253ZM253 577V723H384V577H253Z" />
<glyph unicode="&#xa3;" horiz-adv-x="636" d="M109 0V486Q109 611 185 676T395 741Q418 741 449 740T510 736T560 731V601Q541 603 510 605T447 609T395 611Q345 611 314 597T269 552T255 479V0H109ZM41 0V124H517V0H41ZM47 313V420H491V313H47ZM481 0V212H606V0H481Z" />
<glyph unicode="&#xa4;" horiz-adv-x="683" d="M341 135Q267 135 212 167T127 250T97 357V373Q97 430 127 481T212 564T341 596Q416 596 471 564T556 481T586 373V357Q586 301 556 250T471 167T341 135ZM123 65L32 158L142 268L233 176L123 65ZM142 460L32 571L123
663L233 553L142 460ZM341 257Q377 257 400 270T436 308T449 365Q449 399 436 423T400 460T341 474Q308 474 284 461T247 423T234 365Q234 333 246 309T283 271T341 257ZM560 65L450 176L541 268L651 158L560 65ZM541 460L450 553L560 663L651 571L541 460Z" />
<glyph unicode="&#xa5;" horiz-adv-x="666" d="M234 298L17 730H184L336 410L308 419H385L354 410L492 730H649L449 298H234ZM267 0V321H417V0H267ZM61 146V227H619V146H61ZM61 298V379H619V298H61Z" />
<glyph unicode="&#xa6;" horiz-adv-x="376" d="M120 327V730H256V327H120ZM120 -200V201H256V-200H120Z" />
<glyph unicode="&#xa7;" horiz-adv-x="598" d="M287 -98Q172 -98 106 -48T35 96H177Q181 65 208 42T288 19Q330 19 353 35T376 78Q376 99 359 112T313 137T250 158Q214 169 177 183T108 217T57 267T37 340Q37 391 61 429T123 490T202 521L307 467Q266 462 238
447T195 411T181 370Q181 342 200 325T250 295T318 272Q353 261 388 248T452 215T499 166T517 92Q517 5 456 -46T287 -98ZM369 162L293 239Q357 252 387 281T418 346Q418 370 400 386T350 414T283 437Q247 449 209 463T140 499T89 550T69 626Q69 678 97 718T174
782T288 806Q393 806 454 759T516 625H377Q376 655 354 673T288 691Q250 691 232 675T213 632Q213 612 230 598T277 573T340 551Q378 540 417 526T489 491T542 439T562 361Q562 312 541 275T478 209T369 162Z" />
<glyph unicode="&#xa8;" horiz-adv-x="300" d="M85 631Q40 631 20 655T0 714Q0 750 20 774T85 798Q129 798 149 774T169 714Q169 679 149 655T85 631ZM300 631Q255 631 235 655T215 714Q215 750 235 774T300 798Q344 798 364 774T384 714Q384 679 364 655T300 631Z" />
<glyph unicode="&#xa9;" horiz-adv-x="713" d="M357 109Q275 109 215 137T118 211T62 311T43 418V436Q43 490 62 544T119 644T216 716T357 743Q437 743 496 716T594 644T651 545T671 436V418Q671 366 653 312T596 211T499 137T357 109ZM357 163Q435 163 492 199T580
296T611 426Q611 499 580 558T492 653T357 689Q278 689 221 654T134 559T103 426Q103 356 133 296T221 200T357 163ZM359 237Q298 237 258 262T198 329T178 417V430Q178 480 198 521T259 587T359 612Q433 612 480 572T531 465H424Q422 489 407 504T362 520Q323
520 307 495T290 424Q290 395 296 374T319 341T361 329Q391 329 407 345T427 388H534Q531 320 482 279T359 237Z" />
<glyph unicode="&#xaa;" horiz-adv-x="439" d="M280 348V459H256V573Q256 594 248 604T217 615Q206 615 181 615T124 613T67 610V729Q85 731 110 732T160 734T205 735Q265 735 307 717T371 663T394 575V348H280ZM163 338Q104 338 66 370T27 459Q27 504 51 530T116
568T210 581H273V508H211Q191 508 180 498T169 470Q169 454 179 444T211 434Q225 434 234 439T249 456T256 488L289 458Q283 401 253 370T163 338Z" />
<glyph unicode="&#xab;" horiz-adv-x="650" d="M151 39L19 235V283L157 483H335L193 278V245L335 39H151ZM439 39L307 235V283L445 483H623L481 278V245L623 39H439Z" />
<glyph unicode="&#xac;" horiz-adv-x="627" d="M50 257V387H577V72L454 71V329L527 257H50Z" />
<glyph unicode="&#xad;" horiz-adv-x="431" d="M39 212V354H392V212H39Z" />
<glyph unicode="&#xae;" horiz-adv-x="678" d="M339 176Q269 176 216 200T126 265T72 355T54 453V469Q54 520 72 568T127 657T217 720T339 744Q408 744 461 721T550 657T605 569T624 469V453Q624 404 606 355T552 266T463 201T339 176ZM339 228Q408 228 459 259T539
343T568 460Q568 526 540 578T460 661T339 692Q270 692 219 662T139 579T110 460Q110 396 138 344T218 260T339 228ZM218 309V624H301V309H218ZM401 309L327 431H414L492 309H401ZM257 400V469H344Q370 469 381 480T393 511Q393 532 382 543T344 554H257V624H340Q406
624 441 596T476 512Q476 457 441 429T340 400H257Z" />
<glyph unicode="&#xaf;" horiz-adv-x="300" d="M0 648V760H340V648H0Z" />
<glyph unicode="&#xb0;" horiz-adv-x="424" d="M212 356Q156 356 113 381T45 449T21 543Q21 595 45 637T112 704T212 730Q270 730 312 705T379 637T404 543Q404 492 380 450T312 382T212 356ZM212 466Q247 466 267 488T287 544Q287 575 267 597T212 620Q177 620
157 598T137 544Q137 511 157 489T212 466Z" />
<glyph unicode="&#xb1;" horiz-adv-x="610" d="M64 28V149H546V28H64ZM238 209V664H372V209H238ZM64 376V498H546V376H64Z" />
<glyph unicode="&#xb2;" horiz-adv-x="379" d="M39 420V504Q39 544 60 571T131 618L192 643Q214 652 226 664T239 700Q239 718 226 730T188 743Q163 743 151 731T139 697H33Q33 755 71 794T188 834Q265 834 304 796T344 705V698Q344 654 320 623T232 566L171 541Q156
536 148 530T139 511V490L114 510H342V420H39Z" />
<glyph unicode="&#xb3;" horiz-adv-x="381" d="M187 409Q112 409 69 447T26 542H132Q132 523 146 512T187 500Q213 500 227 513T241 546Q241 566 227 580T187 594Q171 594 159 589T137 576L89 658L201 718L195 728H44V822H330V724L195 650L139 666Q151 668 164
669T188 670Q262 670 305 637T348 547V540Q348 484 306 447T187 409Z" />
<glyph unicode="&#xb4;" horiz-adv-x="300" d="M0 612L90 821H254L140 612H0Z" />
<glyph unicode="&#xb5;" horiz-adv-x="680" d="M61 -200V548H221V222Q221 178 246 152T313 126Q342 126 363 138T397 173T410 226V548H570V172Q570 156 579 147T605 138H654V0H592Q529 0 492 20T438 80T421 181L443 231H454Q454 148 432 93T371 10T278 -17H273Q238
-17 205 0T150 49T127 120L172 133Q172 99 181 65T198 -6T207 -84V-200H61Z" />
<glyph unicode="&#xb6;" horiz-adv-x="641" d="M202 371Q102 371 56 419T9 547V558Q9 638 55 686T202 734H308V371H202ZM272 0V734H384V0H272ZM450 0V734H560V0H450Z" />
<glyph unicode="&#xb7;" horiz-adv-x="273" d="M48 194V373H224V194H48Z" />
<glyph unicode="&#xb8;" horiz-adv-x="300" d="M119 -270Q96 -270 74 -266T39 -258V-160Q53 -165 72 -168T113 -172Q141 -172 155 -165T169 -144Q169 -133 160 -127T127 -121H74V13H171V-86L115 -43H128Q197 -43 235 -69T274 -147Q274 -199 235 -234T119 -270Z" />
<glyph unicode="&#xb9;" horiz-adv-x="264" d="M102 420V749L131 727H26V822H212V420H102Z" />
<glyph unicode="&#xba;" horiz-adv-x="482" d="M241 333Q176 333 129 359T57 429T32 527V545Q32 601 58 645T131 715T241 741Q305 741 352 716T424 646T450 545V527Q450 473 426 429T354 359T241 333ZM241 452Q263 452 277 462T299 492T306 536Q306 561 299 580T277
611T241 622Q221 622 206 611T184 581T176 536Q176 511 183 492T205 463T241 452Z" />
<glyph unicode="&#xbb;" horiz-adv-x="650" d="M499 483L631 287V239L493 39H315L457 244V277L315 483H499ZM211 483L343 287V239L205 39H27L169 244V277L27 483H211Z" />
<glyph unicode="&#xbc;" horiz-adv-x="854" d="M102 255V584L131 562H26V657H212V255H102ZM129 -22L534 680H645L239 -22H129ZM472 68V181L627 428L711 377L581 168L589 155H834V68H472ZM688 0V292H789V0H688Z" />
<glyph unicode="&#xbd;" horiz-adv-x="870" d="M102 255V584L131 562H26V657H212V255H102ZM129 -22L534 680H645L239 -22H129ZM530 0V84Q530 124 551 151T622 198L683 223Q705 232 717 244T730 280Q730 298 717 310T679 323Q654 323 642 311T630 277H524Q524 335
562 374T679 414Q756 414 795 376T835 285V278Q835 234 811 203T723 146L662 121Q647 116 639 110T630 91V70L605 90H833V0H530Z" />
<glyph unicode="&#xbe;" horiz-adv-x="953" d="M187 244Q112 244 69 282T26 377H132Q132 358 146 347T187 335Q213 335 227 348T241 381Q241 401 227 415T187 429Q171 429 159 424T137 411L89 493L201 553L195 563H44V657H330V559L195 485L139 501Q151 503 164
504T188 505Q262 505 305 472T348 382V375Q348 319 306 282T187 244ZM228 -22L633 680H744L338 -22H228ZM571 68V181L726 428L810 377L680 168L688 155H933V68H571ZM787 0V292H888V0H787Z" />
<glyph unicode="&#xbf;" horiz-adv-x="563" d="M385 303V129H292Q239 129 213 101T187 31Q187 2 198 -19T231 -53T283 -66Q315 -66 337 -53T371 -17T383 33H536Q536 -33 507 -86T419 -172T279 -204Q203 -204 148 -176T63 -97T33 18V30Q33 94 63 142T152 218T293
248L224 193L226 303H385ZM397 548V387H215V548H397Z" />
<glyph unicode="&#xc0;" horiz-adv-x="782" d="M13 0L254 730H519L769 0H599L397 617L449 596H320L374 617L177 0H13ZM196 181L246 317H532L583 181H196ZM311 785L183 964H357L465 785H311Z" />
<glyph unicode="&#xc1;" horiz-adv-x="782" d="M13 0L254 730H519L769 0H599L397 617L449 596H320L374 617L177 0H13ZM196 181L246 317H532L583 181H196ZM301 785L426 964H598L454 785H301Z" />
<glyph unicode="&#xc2;" horiz-adv-x="782" d="M13 0L254 730H519L769 0H599L397 617L449 596H320L374 617L177 0H13ZM196 181L246 317H532L583 181H196ZM164 785L294 964H483L615 785H468L395 888H378L307 785H164Z" />
<glyph unicode="&#xc3;" horiz-adv-x="782" d="M13 0L254 730H519L769 0H599L397 617L449 596H320L374 617L177 0H13ZM196 181L246 317H532L583 181H196ZM476 786Q445 786 423 794T383 812T346 831T302 839Q270 839 247 828T209 799L185 907Q202 928 231 942T302
957Q334 957 356 949T396 931T433 912T477 904Q509 904 532 916T570 945L594 836Q577 815 548 801T476 786Z" />
<glyph unicode="&#xc4;" horiz-adv-x="782" d="M13 0L254 730H519L769 0H599L397 617L449 596H320L374 617L177 0H13ZM196 181L246 317H532L583 181H196ZM275 796Q231 796 209 819T187 878Q187 915 209 938T275 961Q321 961 342 938T364 878Q364 842 343 819T275
796ZM499 796Q455 796 433 819T411 878Q411 915 433 938T499 961Q545 961 566 938T588 878Q588 842 567 819T499 796Z" />
<glyph unicode="&#xc5;" horiz-adv-x="782" d="M13 0L254 730H519L769 0H599L397 617L449 596H320L374 617L177 0H13ZM196 181L246 317H532L583 181H196ZM387 762Q329 762 293 793T257 875Q257 925 293 956T387 987Q446 987 482 956T518 875Q518 825 482 794T387
762ZM387 834Q408 834 420 845T432 875Q432 892 420 903T387 915Q366 915 355 904T343 875Q343 857 354 846T387 834Z" />
<glyph unicode="&#xc6;" horiz-adv-x="983" d="M-3 0L285 730H495V596H354L404 617L161 0H-3ZM207 196L258 333H495V196H207ZM474 0V730H631V0H474ZM610 0V136H930V0H610ZM610 303V439H907V303H610ZM610 594V730H923V594H610Z" />
<glyph unicode="&#xc7;" horiz-adv-x="800" d="M417 -19Q318 -19 247 15T131 106T65 228T43 356V378Q43 446 65 512T132 633T247 719T412 752Q511 752 587 715T708 613T762 459H597Q590 503 565 534T501 582T412 599Q363 599 325 582T262 534T223 461T209 366Q209
315 222 273T262 199T328 151T417 134Q493 134 545 171T609 273H773Q764 193 720 127T599 21T417 -19ZM412 -276Q387 -276 364 -273T326 -264V-162Q341 -166 361 -170T405 -174Q435 -174 450 -167T465 -146Q465 -135 454 -129T419 -123H366V13H469V-86L407 -43H421Q491
-43 531 -69T572 -149Q572 -202 531 -239T412 -276Z" />
<glyph unicode="&#xc8;" horiz-adv-x="594" d="M82 0V730H242V0H82ZM222 0V136H541V0H222ZM222 303V439H518V303H222ZM222 594V730H534V594H222ZM233 785L105 964H279L387 785H233Z" />
<glyph unicode="&#xc9;" horiz-adv-x="594" d="M82 0V730H242V0H82ZM222 0V136H541V0H222ZM222 303V439H518V303H222ZM222 594V730H534V594H222ZM223 785L348 964H520L376 785H223Z" />
<glyph unicode="&#xca;" horiz-adv-x="594" d="M82 0V730H242V0H82ZM222 0V136H541V0H222ZM222 303V439H518V303H222ZM222 594V730H534V594H222ZM86 785L216 964H405L537 785H390L317 888H300L229 785H86Z" />
<glyph unicode="&#xcb;" horiz-adv-x="594" d="M82 0V730H242V0H82ZM222 0V136H541V0H222ZM222 303V439H518V303H222ZM222 594V730H534V594H222ZM197 796Q153 796 131 819T109 878Q109 915 131 938T197 961Q243 961 264 938T286 878Q286 842 265 819T197 796ZM421
796Q377 796 355 819T333 878Q333 915 355 938T421 961Q467 961 488 938T510 878Q510 842 489 819T421 796Z" />
<glyph unicode="&#xcc;" horiz-adv-x="332" d="M84 0V730H248V0H84ZM346 785L218 964H392L500 785H346Z" />
<glyph unicode="&#xcd;" horiz-adv-x="332" d="M84 0V730H248V0H84ZM80 785L205 964H377L233 785H80Z" />
<glyph unicode="&#xce;" horiz-adv-x="332" d="M84 0V730H248V0H84ZM200 785L330 964H519L651 785H504L431 888H414L343 785H200Z" />
<glyph unicode="&#xcf;" horiz-adv-x="332" d="M84 0V730H248V0H84ZM310 796Q266 796 244 819T222 878Q222 915 244 938T310 961Q356 961 377 938T399 878Q399 842 378 819T310 796ZM534 796Q490 796 468 819T446 878Q446 915 468 938T534 961Q580 961 601 938T623
878Q623 842 602 819T534 796Z" />
<glyph unicode="&#xd0;" horiz-adv-x="781" d="M226 -4V149H362Q413 149 454 164T524 208T568 277T583 367Q583 418 568 458T524 526T454 568T362 583H226V736H353Q452 736 526 707T650 628T724 514T749 378V356Q749 290 725 226T650 110T526 27T353 -4H226ZM82
-4V736H246V-4H82ZM14 298V432H401V298H14Z" />
<glyph unicode="&#xd1;" horiz-adv-x="876" d="M82 0V730H351L626 133H660L640 115V730H794V0H523L248 597H214L234 615V0H82ZM539 786Q508 786 486 794T446 812T409 831T365 839Q333 839 310 828T272 799L248 907Q265 928 294 942T365 957Q397 957 419 949T459
931T496 912T540 904Q572 904 595 916T633 945L657 836Q640 815 611 801T539 786Z" />
<glyph unicode="&#xd2;" horiz-adv-x="864" d="M432 -19Q333 -19 260 15T138 106T67 229T43 356V378Q43 446 67 512T141 633T263 719T432 752Q528 752 601 720T723 633T797 513T822 378V356Q822 295 798 229T726 107T605 16T432 -19ZM432 134Q484 134 525 152T596
202T641 276T656 366Q656 417 641 459T596 533T525 582T432 599Q380 599 339 582T269 534T224 460T209 366Q209 318 224 276T268 202T339 152T432 134ZM356 785L228 964H402L510 785H356Z" />
<glyph unicode="&#xd3;" horiz-adv-x="864" d="M432 -19Q333 -19 260 15T138 106T67 229T43 356V378Q43 446 67 512T141 633T263 719T432 752Q528 752 601 720T723 633T797 513T822 378V356Q822 295 798 229T726 107T605 16T432 -19ZM432 134Q484 134 525 152T596
202T641 276T656 366Q656 417 641 459T596 533T525 582T432 599Q380 599 339 582T269 534T224 460T209 366Q209 318 224 276T268 202T339 152T432 134ZM347 785L472 964H644L500 785H347Z" />
<glyph unicode="&#xd4;" horiz-adv-x="864" d="M432 -19Q333 -19 260 15T138 106T67 229T43 356V378Q43 446 67 512T141 633T263 719T432 752Q528 752 601 720T723 633T797 513T822 378V356Q822 295 798 229T726 107T605 16T432 -19ZM432 134Q484 134 525 152T596
202T641 276T656 366Q656 417 641 459T596 533T525 582T432 599Q380 599 339 582T269 534T224 460T209 366Q209 318 224 276T268 202T339 152T432 134ZM210 785L340 964H529L661 785H514L441 888H424L353 785H210Z" />
<glyph unicode="&#xd5;" horiz-adv-x="864" d="M432 -19Q333 -19 260 15T138 106T67 229T43 356V378Q43 446 67 512T141 633T263 719T432 752Q528 752 601 720T723 633T797 513T822 378V356Q822 295 798 229T726 107T605 16T432 -19ZM432 134Q484 134 525 152T596
202T641 276T656 366Q656 417 641 459T596 533T525 582T432 599Q380 599 339 582T269 534T224 460T209 366Q209 318 224 276T268 202T339 152T432 134ZM521 786Q490 786 468 794T428 812T391 831T347 839Q315 839 292 828T254 799L230 907Q247 928 276 942T347
957Q379 957 401 949T441 931T478 912T522 904Q554 904 577 916T615 945L639 836Q622 815 593 801T521 786Z" />
<glyph unicode="&#xd6;" horiz-adv-x="864" d="M432 -19Q333 -19 260 15T138 106T67 229T43 356V378Q43 446 67 512T141 633T263 719T432 752Q528 752 601 720T723 633T797 513T822 378V356Q822 295 798 229T726 107T605 16T432 -19ZM432 134Q484 134 525 152T596
202T641 276T656 366Q656 417 641 459T596 533T525 582T432 599Q380 599 339 582T269 534T224 460T209 366Q209 318 224 276T268 202T339 152T432 134ZM320 796Q276 796 254 819T232 878Q232 915 254 938T320 961Q366 961 387 938T409 878Q409 842 388 819T320
796ZM544 796Q500 796 478 819T456 878Q456 915 478 938T544 961Q590 961 611 938T633 878Q633 842 612 819T544 796Z" />
<glyph unicode="&#xd7;" horiz-adv-x="596" d="M458 93L551 186L139 597L46 504L458 93ZM135 93L551 508L462 597L46 182L135 93Z" />
<glyph unicode="&#xd8;" horiz-adv-x="864" d="M83 -65L655 786H781L209 -65H83ZM432 -19Q333 -19 260 15T138 106T67 229T43 356V378Q43 446 67 512T141 633T263 719T432 752Q528 752 601 720T723 633T797 513T822 378V356Q822 295 798 229T726 107T605 16T432
-19ZM432 134Q484 134 525 152T596 202T641 276T656 366Q656 417 641 459T596 533T525 582T432 599Q380 599 339 582T269 534T224 460T209 366Q209 318 224 276T268 202T339 152T432 134Z" />
<glyph unicode="&#xd9;" horiz-adv-x="776" d="M388 -19Q285 -19 214 19T105 129T68 297V730H232V291Q232 243 250 208T303 153T388 134Q439 134 473 153T526 207T544 291V730H708V297Q708 200 671 129T563 20T388 -19ZM312 785L184 964H358L466 785H312Z" />
<glyph unicode="&#xda;" horiz-adv-x="776" d="M388 -19Q285 -19 214 19T105 129T68 297V730H232V291Q232 243 250 208T303 153T388 134Q439 134 473 153T526 207T544 291V730H708V297Q708 200 671 129T563 20T388 -19ZM303 785L428 964H600L456 785H303Z" />
<glyph unicode="&#xdb;" horiz-adv-x="776" d="M388 -19Q285 -19 214 19T105 129T68 297V730H232V291Q232 243 250 208T303 153T388 134Q439 134 473 153T526 207T544 291V730H708V297Q708 200 671 129T563 20T388 -19ZM166 785L296 964H485L617 785H470L397 888H380L309
785H166Z" />
<glyph unicode="&#xdc;" horiz-adv-x="776" d="M388 -19Q285 -19 214 19T105 129T68 297V730H232V291Q232 243 250 208T303 153T388 134Q439 134 473 153T526 207T544 291V730H708V297Q708 200 671 129T563 20T388 -19ZM276 796Q232 796 210 819T188 878Q188 915
210 938T276 961Q322 961 343 938T365 878Q365 842 344 819T276 796ZM500 796Q456 796 434 819T412 878Q412 915 434 938T500 961Q546 961 567 938T589 878Q589 842 568 819T500 796Z" />
<glyph unicode="&#xdd;" horiz-adv-x="657" d="M220 277L7 730H175L328 391L299 400H383L352 391L490 730H649L453 277H220ZM256 0V300H417V0H256ZM246 785L371 964H543L399 785H246Z" />
<glyph unicode="&#xde;" horiz-adv-x="652" d="M226 113V256H349Q386 256 411 269T451 309T465 371Q465 407 451 433T412 473T349 488H226V629H341Q432 629 497 599T596 512T631 379V363Q631 287 597 231T497 144T341 113H226ZM82 0V730H246V0H82Z" />
<glyph unicode="&#xdf;" horiz-adv-x="675" d="M391 -13Q364 -13 339 -10T295 -1V129Q313 124 335 121T376 117Q426 117 455 143T485 217Q485 247 472 273T430 314T358 329H316V447H346Q372 447 389 458T416 488T425 529Q425 554 415 574T385 605T338 617Q310
617 289 604T255 567T242 506V0H81V498Q81 617 149 682T336 747H340Q415 747 470 720T555 647T585 539Q585 491 564 453T498 394T386 372L388 413Q472 413 529 388T615 315T645 204Q645 131 611 83T519 11T391 -13ZM21 406V524H111V406H21Z" />
<glyph unicode="&#xe0;" horiz-adv-x="594" d="M404 0V162H377V338Q377 380 357 401T293 422Q271 422 235 421T161 418T92 414V549Q115 551 146 553T210 556T272 557Q356 557 413 533T501 461T531 336V0H404ZM229 -14Q170 -14 126 7T56 67T31 162Q31 222 62 260T149
317T278 336H395V247H277Q235 247 213 227T190 171Q190 138 212 118T277 97Q304 97 325 106T361 139T377 203L415 163Q410 106 388 67T326 7T229 -14ZM222 612L109 821H278L366 612H222Z" />
<glyph unicode="&#xe1;" horiz-adv-x="594" d="M404 0V162H377V338Q377 380 357 401T293 422Q271 422 235 421T161 418T92 414V549Q115 551 146 553T210 556T272 557Q356 557 413 533T501 461T531 336V0H404ZM229 -14Q170 -14 126 7T56 67T31 162Q31 222 62 260T149
317T278 336H395V247H277Q235 247 213 227T190 171Q190 138 212 118T277 97Q304 97 325 106T361 139T377 203L415 163Q410 106 388 67T326 7T229 -14ZM211 612L301 821H465L351 612H211Z" />
<glyph unicode="&#xe2;" horiz-adv-x="594" d="M404 0V162H377V338Q377 380 357 401T293 422Q271 422 235 421T161 418T92 414V549Q115 551 146 553T210 556T272 557Q356 557 413 533T501 461T531 336V0H404ZM229 -14Q170 -14 126 7T56 67T31 162Q31 222 62 260T149
317T278 336H395V247H277Q235 247 213 227T190 171Q190 138 212 118T277 97Q304 97 325 106T361 139T377 203L415 163Q410 106 388 67T326 7T229 -14ZM90 612L193 821H388L493 612H358L296 746H283L222 612H90Z" />
<glyph unicode="&#xe3;" horiz-adv-x="594" d="M404 0V162H377V338Q377 380 357 401T293 422Q271 422 235 421T161 418T92 414V549Q115 551 146 553T210 556T272 557Q356 557 413 533T501 461T531 336V0H404ZM229 -14Q170 -14 126 7T56 67T31 162Q31 222 62 260T149
317T278 336H395V247H277Q235 247 213 227T190 171Q190 138 212 118T277 97Q304 97 325 106T361 139T377 203L415 163Q410 106 388 67T326 7T229 -14ZM369 624Q339 624 319 632T283 650T250 667T210 675Q184 675 164 665T129 639L105 748Q122 767 147 780T211 793Q241
793 261 786T297 768T330 750T369 742Q396 742 416 752T452 778L475 669Q458 651 432 638T369 624Z" />
<glyph unicode="&#xe4;" horiz-adv-x="594" d="M404 0V162H377V338Q377 380 357 401T293 422Q271 422 235 421T161 418T92 414V549Q115 551 146 553T210 556T272 557Q356 557 413 533T501 461T531 336V0H404ZM229 -14Q170 -14 126 7T56 67T31 162Q31 222 62 260T149
317T278 336H395V247H277Q235 247 213 227T190 171Q190 138 212 118T277 97Q304 97 325 106T361 139T377 203L415 163Q410 106 388 67T326 7T229 -14ZM183 631Q138 631 118 655T98 714Q98 750 118 774T183 798Q227 798 247 774T267 714Q267 679 247 655T183 631ZM398
631Q353 631 333 655T313 714Q313 750 333 774T398 798Q442 798 462 774T482 714Q482 679 462 655T398 631Z" />
<glyph unicode="&#xe5;" horiz-adv-x="594" d="M404 0V162H377V338Q377 380 357 401T293 422Q271 422 235 421T161 418T92 414V549Q115 551 146 553T210 556T272 557Q356 557 413 533T501 461T531 336V0H404ZM229 -14Q170 -14 126 7T56 67T31 162Q31 222 62 260T149
317T278 336H395V247H277Q235 247 213 227T190 171Q190 138 212 118T277 97Q304 97 325 106T361 139T377 203L415 163Q410 106 388 67T326 7T229 -14ZM291 601Q234 601 199 635T163 723Q163 776 198 810T291 845Q348 845 383 811T419 723Q419 670 384 636T291 601ZM291
678Q312 678 323 690T335 723Q335 742 324 755T291 768Q270 768 258 756T246 723Q246 704 258 691T291 678Z" />
<glyph unicode="&#xe6;" horiz-adv-x="957" d="M659 -19Q604 -19 562 -4T489 36T438 95T407 164H453Q448 107 419 67T342 6T234 -15Q173 -15 128 6T57 66T31 161Q31 222 62 260T149 316T278 335H395V247H277Q235 247 213 226T190 171Q190 137 212 117T277 96Q304
96 326 106T363 140T377 206V337Q377 379 357 400T293 421Q271 421 235 420T161 417T92 413V548Q115 550 146 552T209 555T270 556Q353 556 404 532T480 460T507 341H406Q417 401 446 452T526 534T654 565Q741 565 801 526T892 422T924 284V233H505V321H828L775
280Q775 330 761 364T720 416T651 434Q610 434 581 415T537 360T521 271Q521 223 535 187T579 132T657 112Q700 112 729 128T767 170H914Q902 114 868 72T780 5T659 -19Z" />
<glyph unicode="&#xe7;" horiz-adv-x="611" d="M319 -19Q248 -19 196 4T108 68T56 158T39 263V282Q39 338 57 389T110 481T197 544T318 567Q392 567 449 539T540 459T578 342H421Q417 379 392 404T318 430Q278 430 252 410T212 355T199 272Q199 228 211 193T249
138T319 118Q351 118 373 129T409 161T426 209H582Q579 141 544 90T451 10T319 -19ZM314 -270Q291 -270 269 -266T234 -258V-160Q248 -165 267 -168T308 -172Q336 -172 350 -165T364 -144Q364 -133 355 -127T322 -121H269V13H366V-86L310 -43H323Q392 -43 430 -69T469
-147Q469 -199 430 -234T314 -270Z" />
<glyph unicode="&#xe8;" horiz-adv-x="624" d="M324 -19Q254 -19 201 5T112 69T58 160T39 264V284Q39 339 57 389T111 480T198 543T318 567Q406 567 466 528T559 425T591 286V232H106V323H494L442 281Q442 330 428 365T387 418T318 437Q276 437 247 418T203 363T188
273Q188 224 202 188T246 131T324 111Q368 111 396 128T434 170H581Q569 115 534 72T446 5T324 -19ZM249 612L136 821H305L393 612H249Z" />
<glyph unicode="&#xe9;" horiz-adv-x="624" d="M324 -19Q254 -19 201 5T112 69T58 160T39 264V284Q39 339 57 389T111 480T198 543T318 567Q406 567 466 528T559 425T591 286V232H106V323H494L442 281Q442 330 428 365T387 418T318 437Q276 437 247 418T203 363T188
273Q188 224 202 188T246 131T324 111Q368 111 396 128T434 170H581Q569 115 534 72T446 5T324 -19ZM239 612L329 821H493L379 612H239Z" />
<glyph unicode="&#xea;" horiz-adv-x="624" d="M324 -19Q254 -19 201 5T112 69T58 160T39 264V284Q39 339 57 389T111 480T198 543T318 567Q406 567 466 528T559 425T591 286V232H106V323H494L442 281Q442 330 428 365T387 418T318 437Q276 437 247 418T203 363T188
273Q188 224 202 188T246 131T324 111Q368 111 396 128T434 170H581Q569 115 534 72T446 5T324 -19ZM118 612L221 821H416L521 612H386L324 746H311L250 612H118Z" />
<glyph unicode="&#xeb;" horiz-adv-x="624" d="M324 -19Q254 -19 201 5T112 69T58 160T39 264V284Q39 339 57 389T111 480T198 543T318 567Q406 567 466 528T559 425T591 286V232H106V323H494L442 281Q442 330 428 365T387 418T318 437Q276 437 247 418T203 363T188
273Q188 224 202 188T246 131T324 111Q368 111 396 128T434 170H581Q569 115 534 72T446 5T324 -19ZM211 631Q166 631 146 655T126 714Q126 750 146 774T211 798Q255 798 275 774T295 714Q295 679 275 655T211 631ZM426 631Q381 631 361 655T341 714Q341 750 361
774T426 798Q470 798 490 774T510 714Q510 679 490 655T426 631Z" />
<glyph unicode="&#xec;" horiz-adv-x="334" d="M99 0V548H259V0H99ZM26 430V548H259V430H26ZM340 612L227 821H396L484 612H340Z" />
<glyph unicode="&#xed;" horiz-adv-x="334" d="M99 0V548H259V0H99ZM26 430V548H259V430H26ZM74 612L164 821H328L214 612H74Z" />
<glyph unicode="&#xee;" horiz-adv-x="334" d="M99 0V548H259V0H99ZM26 430V548H259V430H26ZM209 612L312 821H507L612 612H477L415 746H402L341 612H209Z" />
<glyph unicode="&#xef;" horiz-adv-x="334" d="M99 0V548H259V0H99ZM26 430V548H259V430H26ZM302 631Q257 631 237 655T217 714Q217 750 237 774T302 798Q346 798 366 774T386 714Q386 679 366 655T302 631ZM517 631Q472 631 452 655T432 714Q432 750 452 774T517
798Q561 798 581 774T601 714Q601 679 581 655T517 631Z" />
<glyph unicode="&#xf0;" horiz-adv-x="674" d="M338 -18Q266 -18 211 2T117 59T59 142T39 243V260Q39 335 72 391T165 478T300 509Q356 509 402 491T478 440T516 358H504Q503 456 482 514T428 595Q408 611 376 619T300 627Q267 627 235 624T171 616V737Q203 742
235 745T299 748Q417 748 490 702T598 567T633 349V323Q633 218 600 141T501 23T338 -18ZM339 117Q383 117 414 133T461 179T478 252Q478 295 461 326T413 373T338 389Q296 389 265 373T216 326T199 252Q199 209 215 179T263 133T339 117ZM381 512L326 570L555
790L611 731L381 512Z" />
<glyph unicode="&#xf1;" horiz-adv-x="652" d="M73 0V548H200V313H191Q191 397 212 453T278 537T385 565H392Q488 565 538 503T589 313V0H429V322Q429 366 403 394T333 422Q288 422 261 394T233 319V0H73ZM412 624Q382 624 362 632T326 650T293 667T253 675Q227
675 207 665T172 639L148 748Q165 767 190 780T254 793Q284 793 304 786T340 768T373 750T412 742Q439 742 459 752T495 778L518 669Q501 651 475 638T412 624Z" />
<glyph unicode="&#xf2;" horiz-adv-x="681" d="M340 -19Q268 -19 212 3T118 65T59 154T39 261V284Q39 341 59 392T119 483T215 544T340 567Q411 567 466 545T561 483T621 393T642 284V261Q642 205 622 155T564 65T469 4T340 -19ZM340 116Q387 116 418 136T465
192T482 272Q482 319 465 354T417 411T340 432Q296 432 264 411T216 355T199 272Q199 228 215 192T263 136T340 116ZM272 612L159 821H328L416 612H272Z" />
<glyph unicode="&#xf3;" horiz-adv-x="681" d="M340 -19Q268 -19 212 3T118 65T59 154T39 261V284Q39 341 59 392T119 483T215 544T340 567Q411 567 466 545T561 483T621 393T642 284V261Q642 205 622 155T564 65T469 4T340 -19ZM340 116Q387 116 418 136T465
192T482 272Q482 319 465 354T417 411T340 432Q296 432 264 411T216 355T199 272Q199 228 215 192T263 136T340 116ZM261 612L351 821H515L401 612H261Z" />
<glyph unicode="&#xf4;" horiz-adv-x="681" d="M340 -19Q268 -19 212 3T118 65T59 154T39 261V284Q39 341 59 392T119 483T215 544T340 567Q411 567 466 545T561 483T621 393T642 284V261Q642 205 622 155T564 65T469 4T340 -19ZM340 116Q387 116 418 136T465
192T482 272Q482 319 465 354T417 411T340 432Q296 432 264 411T216 355T199 272Q199 228 215 192T263 136T340 116ZM140 612L243 821H438L543 612H408L346 746H333L272 612H140Z" />
<glyph unicode="&#xf5;" horiz-adv-x="681" d="M340 -19Q268 -19 212 3T118 65T59 154T39 261V284Q39 341 59 392T119 483T215 544T340 567Q411 567 466 545T561 483T621 393T642 284V261Q642 205 622 155T564 65T469 4T340 -19ZM340 116Q387 116 418 136T465
192T482 272Q482 319 465 354T417 411T340 432Q296 432 264 411T216 355T199 272Q199 228 215 192T263 136T340 116ZM419 624Q389 624 369 632T333 650T300 667T260 675Q234 675 214 665T179 639L155 748Q172 767 197 780T261 793Q291 793 311 786T347 768T380
750T419 742Q446 742 466 752T502 778L525 669Q508 651 482 638T419 624Z" />
<glyph unicode="&#xf6;" horiz-adv-x="681" d="M340 -19Q268 -19 212 3T118 65T59 154T39 261V284Q39 341 59 392T119 483T215 544T340 567Q411 567 466 545T561 483T621 393T642 284V261Q642 205 622 155T564 65T469 4T340 -19ZM340 116Q387 116 418 136T465
192T482 272Q482 319 465 354T417 411T340 432Q296 432 264 411T216 355T199 272Q199 228 215 192T263 136T340 116ZM233 631Q188 631 168 655T148 714Q148 750 168 774T233 798Q277 798 297 774T317 714Q317 679 297 655T233 631ZM448 631Q403 631 383 655T363
714Q363 750 383 774T448 798Q492 798 512 774T532 714Q532 679 512 655T448 631Z" />
<glyph unicode="&#xf7;" horiz-adv-x="596" d="M50 279V409H547V279H50ZM224 60V206H373V60H224ZM224 482V629H373V482H224Z" />
<glyph unicode="&#xf8;" horiz-adv-x="681" d="M70 -62L512 597H611L168 -62H70ZM340 -19Q268 -19 212 3T118 65T59 154T39 261V284Q39 341 59 392T119 483T215 544T340 567Q411 567 466 545T561 483T621 393T642 284V261Q642 205 622 155T564 65T469 4T340 -19ZM340
116Q387 116 418 136T465 192T482 272Q482 319 465 354T417 411T340 432Q296 432 264 411T216 355T199 272Q199 228 215 192T263 136T340 116Z" />
<glyph unicode="&#xf9;" horiz-adv-x="645" d="M258 -17Q163 -17 112 44T61 230V548H221V222Q221 178 246 152T313 126Q356 126 383 153T410 226V548H570V0H443V231H454Q454 148 433 93T369 10T265 -17H258ZM247 612L134 821H303L391 612H247Z" />
<glyph unicode="&#xfa;" horiz-adv-x="645" d="M258 -17Q163 -17 112 44T61 230V548H221V222Q221 178 246 152T313 126Q356 126 383 153T410 226V548H570V0H443V231H454Q454 148 433 93T369 10T265 -17H258ZM236 612L326 821H490L376 612H236Z" />
<glyph unicode="&#xfb;" horiz-adv-x="645" d="M258 -17Q163 -17 112 44T61 230V548H221V222Q221 178 246 152T313 126Q356 126 383 153T410 226V548H570V0H443V231H454Q454 148 433 93T369 10T265 -17H258ZM115 612L218 821H413L518 612H383L321 746H308L247 612H115Z" />
<glyph unicode="&#xfc;" horiz-adv-x="645" d="M258 -17Q163 -17 112 44T61 230V548H221V222Q221 178 246 152T313 126Q356 126 383 153T410 226V548H570V0H443V231H454Q454 148 433 93T369 10T265 -17H258ZM208 631Q163 631 143 655T123 714Q123 750 143 774T208
798Q252 798 272 774T292 714Q292 679 272 655T208 631ZM423 631Q378 631 358 655T338 714Q338 750 358 774T423 798Q467 798 487 774T507 714Q507 679 487 655T423 631Z" />
<glyph unicode="&#xfd;" horiz-adv-x="570" d="M67 -217V-81H181Q207 -81 225 -75T254 -53T272 -12L407 548H559L406 -44Q390 -108 362 -146T286 -200T165 -217H67ZM239 12V137H355V12H239ZM173 12L5 548H166L325 12H173ZM208 612L298 821H462L348 612H208Z" />
<glyph unicode="&#xfe;" horiz-adv-x="703" d="M73 -200V730H233V345L207 333Q210 404 237 455T313 534T426 562Q481 562 525 542T601 485T648 397T665 285V262Q665 201 648 151T599 62T520 4T414 -17Q351 -17 301 8T222 85T189 218L233 158V-200H73ZM368 116Q409
116 439 136T487 192T504 274Q504 321 487 355T440 409T368 428Q332 428 300 412T249 365T229 288V251Q229 208 249 178T302 132T368 116Z" />
<glyph unicode="&#xff;" horiz-adv-x="570" d="M67 -217V-81H181Q207 -81 225 -75T254 -53T272 -12L407 548H559L406 -44Q390 -108 362 -146T286 -200T165 -217H67ZM239 12V137H355V12H239ZM173 12L5 548H166L325 12H173ZM180 631Q135 631 115 655T95 714Q95 750
115 774T180 798Q224 798 244 774T264 714Q264 679 244 655T180 631ZM395 631Q350 631 330 655T310 714Q310 750 330 774T395 798Q439 798 459 774T479 714Q479 679 459 655T395 631Z" />
<glyph unicode="&#x2013;" horiz-adv-x="526" d="M18 221V344H508V221H18Z" />
<glyph unicode="&#x2014;" horiz-adv-x="914" d="M18 221V344H896V221H18Z" />
<glyph unicode="&#x2018;" horiz-adv-x="270" d="M231 741V650H200Q173 650 157 642T132 614T124 557V484L94 546Q101 552 114 555T143 559Q178 559 202 538T226 477Q226 440 203 415T137 389Q109 389 86 402T48 446T33 530V545Q33 616 53 659T113 721T209 741H231Z" />
<glyph unicode="&#x2019;" horiz-adv-x="270" d="M39 389V480H70Q97 480 113 488T138 516T146 573V646L176 584Q169 578 156 575T127 571Q92 571 68 592T44 653Q44 690 67 715T133 741Q161 741 184 728T222 684T237 600V585Q237 514 217 471T157 409T61 389H39Z" />
<glyph unicode="&#x201a;" horiz-adv-x="270" d="M39 -198V-107H70Q97 -107 113 -99T138 -71T146 -14V59L176 -3Q169 -9 156 -12T127 -16Q92 -16 68 5T44 66Q44 103 67 128T133 154Q161 154 184 141T222 97T237 13V-2Q237 -73 217 -116T157 -178T61 -198H39Z" />
<glyph unicode="&#x201c;" horiz-adv-x="504" d="M465 741V650H434Q407 650 391 642T366 614T358 557V484L328 546Q335 552 348 555T377 559Q412 559 436 538T460 477Q460 440 437 415T371 389Q343 389 320 402T282 446T267 530V545Q267 616 287 659T347 721T443
741H465ZM230 741V650H199Q172 650 156 642T131 614T123 557V484L93 546Q100 552 113 555T142 559Q177 559 201 538T225 477Q225 440 202 415T136 389Q108 389 85 402T47 446T32 530V545Q32 616 52 659T112 721T208 741H230Z" />
<glyph unicode="&#x201d;" horiz-adv-x="504" d="M39 389V480H70Q97 480 113 488T138 516T146 573V646L176 584Q169 578 156 575T127 571Q92 571 68 592T44 653Q44 690 67 715T133 741Q161 741 184 728T222 684T237 600V585Q237 514 217 471T157 409T61 389H39ZM274
389V480H305Q332 480 348 488T373 516T381 573V646L411 584Q404 578 391 575T362 571Q327 571 303 592T279 653Q279 690 302 715T368 741Q396 741 419 728T457 684T472 600V585Q472 514 452 471T392 409T296 389H274Z" />
<glyph unicode="&#x201e;" horiz-adv-x="504" d="M39 -198V-107H70Q97 -107 113 -99T138 -71T146 -14V59L176 -3Q169 -9 156 -12T127 -16Q92 -16 68 5T44 66Q44 103 67 128T133 154Q161 154 184 141T222 97T237 13V-2Q237 -73 217 -116T157 -178T61 -198H39ZM274
-198V-107H305Q332 -107 348 -99T373 -71T381 -14V59L411 -3Q404 -9 391 -12T362 -16Q327 -16 303 5T279 66Q279 103 302 128T368 154Q396 154 419 141T457 97T472 13V-2Q472 -73 452 -116T392 -178T296 -198H274Z" />
<glyph unicode="&#x2022;" horiz-adv-x="435" d="M83 149V429H353V149H83Z" />
<glyph unicode="&#x2039;" horiz-adv-x="363" d="M151 39L19 235V283L157 483H335L193 278V245L335 39H151Z" />
<glyph unicode="&#x203a;" horiz-adv-x="363" d="M212 483L344 287V239L206 39H28L170 244V277L28 483H212Z" />
</font>
</defs>
</svg>
