<?xml version="1.0" standalone="no"?>
<!DOCTYPE svg PUBLIC "-//W3C//DTD SVG 1.1//EN" "http://www.w3.org/Graphics/SVG/1.1/DTD/svg11.dtd">
<svg xmlns="http://www.w3.org/2000/svg">
<defs >
<font id="Tajawal" horiz-adv-x="508" ><font-face
    font-family="Tajawal Medium"
    units-per-em="1000"
    panose-1="0 0 6 0 0 0 0 0 0 0"
    ascent="643"
    descent="-357"
    alphabetic="0" />
<glyph unicode=" " glyph-name="space" horiz-adv-x="233" />
<glyph unicode="!" glyph-name="exclam" horiz-adv-x="238" d="M74 159V633H160V159H74ZM67 40Q67 41 67 42Q69 92 120 92Q173 92 173 40Q173 -13 120 -13Q67 -13 67 40Z" />
<glyph unicode="&quot;" glyph-name="quotedbl" horiz-adv-x="302" d="M70 468V611L134 645V502L70 468ZM169 468V611L232 645V502L169 468Z" />
<glyph unicode="#" glyph-name="numbersign" horiz-adv-x="497" d="M342 142L312 0H248L278 142H152L122 0H58L88 142H15V212H102L138 383H48V453H153L186 609H250L217 453H343L376 609H440L407 453H482V383H392L356 212H449V142H342ZM202 383L166 212H292L328 383H202Z" />
<glyph unicode="$" glyph-name="dollar" horiz-adv-x="550" d="M294 700V644Q381 641 457 589L417 532Q355 562 294 565V376Q392 338 435 290T479 171Q479 86 419 35Q370 -6 294 -11V-74H254V-11Q162 -6 70 54L110 110Q170 75 254 72V300Q158 336 117 378T76 481Q76
549 124 593T254 644V700H294ZM294 73Q381 85 381 175Q381 240 294 283V73ZM254 564Q174 551 174 486Q174 431 254 393V564Z" />
<glyph unicode="%" glyph-name="percent" horiz-adv-x="746" d="M187 0L491 589H563L260 0H187ZM295 429Q295 356 262 312T175 268Q118 268 85 310T52 428Q52 499 85 540T175 581Q228 581 261 539T295 429ZM236 427Q236 471 218 500T173 530Q145 530 127 501T109
427Q109 378 126 348T173 318Q201 318 218 348T236 427ZM694 162Q694 89 661 45T574 1Q516 1 484 44T451 161Q451 232 484 273T574 315Q627 315 660 273T694 162ZM636 160Q636 205 618 234T572 264Q544 264 526 235T508 160Q508 112 526 82T572 51Q600 51 618 81T636
160Z" />
<glyph unicode="&amp;" glyph-name="ampersand" horiz-adv-x="556" d="M403 329H493V290Q493 176 451 112L551 0H448L404 48Q348 -12 249 -12Q156 -12 101 47Q55 96 55 166Q55 217 82 266T153 344L141 357Q72 433 72 498Q72 564 116 604T234 644Q302 644 378 592L339
537Q287 565 233 565Q156 565 156 501Q156 454 219 380L390 181Q403 207 403 274V329ZM199 291Q178 274 164 242T149 182Q149 131 178 100T254 69Q315 69 348 112L199 291Z" />
<glyph unicode="&apos;" glyph-name="quotesingle" horiz-adv-x="204" d="M70 468V611L134 645V502L70 468Z" />
<glyph unicode="(" glyph-name="parenleft" horiz-adv-x="368" d="M234 645H311Q177 463 177 256Q177 152 215 40T311 -140H234Q175 -84 133 32T91 256Q91 360 131 470T234 645Z" />
<glyph unicode=")" glyph-name="parenright" horiz-adv-x="368" d="M57 645H134Q196 580 236 470T277 256Q277 110 212 -23Q173 -104 134 -140H57Q115 -72 153 40T191 256Q191 463 57 645Z" />
<glyph unicode="*" glyph-name="asterisk" horiz-adv-x="328" d="M152 532L157 646L239 624L186 522L296 554L303 469L189 487L252 392L173 361L156 472L85 383L31 450L134 501L25 542L73 613L152 532Z" />
<glyph unicode="+" glyph-name="plus" horiz-adv-x="518" d="M219 192H42V262H219V454H299V262H476V192H299V0H219V192Z" />
<glyph unicode="," glyph-name="comma" horiz-adv-x="196" d="M74 -103L54 -64Q93 -39 93 -8Q93 -6 93 -4Q89 -6 84 -6Q67 -6 55 8T42 43Q42 66 57 81T94 97Q154 97 154 13Q154 -26 132 -58T74 -103Z" />
<glyph unicode="-" glyph-name="hyphen" horiz-adv-x="290" d="M265 204H25V274H265V204Z" />
<glyph unicode="." glyph-name="period" horiz-adv-x="286" d="M91 48Q91 49 91 50Q93 100 144 100Q197 100 197 48Q197 -5 144 -5Q91 -5 91 48Z" />
<glyph unicode="/" glyph-name="slash" horiz-adv-x="327" d="M365 633L50 -30H-25L290 633H365Z" />
<glyph unicode="0" glyph-name="zero" horiz-adv-x="565" d="M280 -12Q165 -12 102 92Q48 180 48 315Q48 466 119 560Q182 645 280 645Q391 645 458 536Q513 445 513 315Q513 160 443 69Q380 -12 280 -12ZM280 565Q216 565 181 502T146 321Q146 199 184 130Q220
68 279 68Q343 68 379 135T415 321Q415 443 377 507Q342 565 280 565Z" />
<glyph unicode="1" glyph-name="one" horiz-adv-x="375" d="M285 633V0H192V531L75 463L30 532L192 633H285Z" />
<glyph unicode="2" glyph-name="two" horiz-adv-x="480" d="M50 0V81L209 258Q281 338 306 382T332 472Q332 514 302 540T222 566Q162 566 95 522L56 578Q145 646 238 646Q325 646 379 595Q430 548 430 472Q430 423 407 378T327 267L161 77H416V0H50Z" />
<glyph unicode="3" glyph-name="three" horiz-adv-x="496" d="M215 298H125V375H215Q322 375 322 472Q322 517 295 542T219 567Q159 567 92 519L56 576Q130 645 232 645Q315 645 369 597Q420 551 420 479Q420 429 394 393T321 344Q445 310 445 185Q445 81 368
28Q311 -11 233 -11Q133 -11 47 61L86 116Q146 70 224 70Q280 70 313 102T347 186Q347 298 215 298Z" />
<glyph unicode="4" glyph-name="four" horiz-adv-x="555" d="M35 208L313 633H408V208H520V131H408V0H316V131H35V208ZM122 208H316V509L122 208Z" />
<glyph unicode="5" glyph-name="five" horiz-adv-x="503" d="M409 556H174V395Q198 399 232 399Q336 399 396 344Q452 293 452 205Q452 103 381 41Q321 -12 237 -12Q132 -12 50 61L87 117Q153 70 222 70Q286 70 320 104T355 201Q355 325 210 325Q146 325 82 312V633H409V556Z"
/>
<glyph unicode="6" glyph-name="six" horiz-adv-x="511" d="M150 365Q194 413 267 413Q345 413 401 361Q461 305 461 204Q461 117 404 52Q348 -12 260 -12Q143 -12 89 97Q50 175 50 292Q50 467 117 560Q178 645 285 645Q376 645 438 591L405 536Q353 565 289 565Q228
565 191 511T150 365ZM145 288Q149 64 259 64Q305 64 334 103T363 204Q363 339 251 339Q185 339 145 288Z" />
<glyph unicode="7" glyph-name="seven" horiz-adv-x="432" d="M301 556H42V633H396V552L158 0H60L301 556Z" />
<glyph unicode="8" glyph-name="eight" horiz-adv-x="524" d="M343 333Q474 294 474 168Q474 82 404 31Q346 -12 262 -12Q165 -12 104 44Q50 93 50 168Q50 229 88 275T185 334Q73 372 73 471Q73 555 134 603Q186 645 265 645Q352 645 408 591Q458 543 458 471Q458
425 427 388T343 333ZM264 368Q364 397 364 474Q364 516 337 542T267 569Q167 569 167 474Q167 400 264 368ZM264 302Q215 298 182 261T148 171Q148 122 179 93T262 64Q313 64 344 93T376 171Q376 222 344 259T264 302Z" />
<glyph unicode="9" glyph-name="nine" horiz-adv-x="511" d="M371 268Q327 220 254 220Q176 220 120 272Q60 328 60 429Q60 516 117 581Q173 645 261 645Q378 645 432 536Q471 458 471 341Q471 166 404 73Q343 -12 236 -12Q145 -12 83 42L116 97Q168 68 232 68Q293
68 330 122T371 268ZM376 345Q372 569 262 569Q216 569 187 530T158 429Q158 294 270 294Q336 294 376 345Z" />
<glyph unicode=":" glyph-name="colon" horiz-adv-x="246" d="M91 288Q91 289 91 290Q93 340 144 340Q197 340 197 288Q197 235 144 235Q91 235 91 288ZM91 48Q91 49 91 50Q93 100 144 100Q197 100 197 48Q197 -5 144 -5Q91 -5 91 48Z" />
<glyph unicode=";" glyph-name="semicolon" horiz-adv-x="196" d="M74 -103L54 -64Q93 -39 93 -8Q93 -6 93 -4Q89 -6 84 -6Q67 -6 55 8T42 43Q42 66 57 81T94 97Q154 97 154 13Q154 -26 132 -58T74 -103ZM39 288Q39 310 54 325T91 340Q115 340 131 325T148 288Q148
231 91 231Q68 231 54 247T39 288Z" />
<glyph unicode="&lt;" glyph-name="less" horiz-adv-x="517" d="M475 403L95 239L475 62V-13L42 189V289L475 478V403Z" />
<glyph unicode="=" glyph-name="equal" horiz-adv-x="518" d="M476 262H42V332H476V262ZM476 122H42V192H476V122Z" />
<glyph unicode="&gt;" glyph-name="greater" horiz-adv-x="517" d="M422 239L42 403V478L475 289V189L42 -13V62L422 239Z" />
<glyph unicode="?" glyph-name="question" horiz-adv-x="403" d="M204 140H118V235Q118 276 129 296T183 350Q265 416 265 483Q265 524 239 548T169 573Q127 573 73 541L42 591Q115 645 195 645Q264 645 307 602T351 491Q351 394 273 329Q270 327 264 322Q260
318 258 316Q222 287 213 271T204 219V140ZM109 45Q109 66 124 81T161 97Q185 97 201 82T218 45Q218 -12 161 -12Q138 -12 124 4T109 45Z" />
<glyph unicode="@" glyph-name="at" horiz-adv-x="704" d="M419 -112L420 -172L396 -173Q387 -173 380 -173Q238 -173 143 -85Q48 2 48 145Q48 301 152 391Q237 466 361 466Q490 466 576 380Q656 300 656 177Q656 103 623 49Q584 -12 514 -12Q480 -12 456 5T426
48Q395 -12 325 -12Q271 -12 236 28T200 130Q200 212 249 259Q289 296 342 296Q383 296 413 274L423 297H483V111Q483 48 522 48Q585 48 585 177Q585 294 502 357Q441 404 361 404Q251 404 184 329Q122 260 122 148Q122 6 215 -64Q282 -114 374 -114Q384 -114 393
-113L419 -112ZM406 218Q384 237 347 237Q280 237 280 142Q280 51 343 51Q406 51 406 141V218Z" />
<glyph unicode="A" glyph-name="A" horiz-adv-x="576" d="M244 633H332L561 0H466L418 143H159L110 0H15L244 633ZM288 521L185 220H391L288 521Z" />
<glyph unicode="B" glyph-name="B" horiz-adv-x="549" d="M90 1V632Q176 645 260 645Q379 645 435 589Q480 544 480 470Q480 421 447 383T364 338V337Q426 328 462 284T499 170Q499 80 426 31Q363 -12 260 -12Q168 -12 90 1ZM183 564V373H277Q327 373 356 396T386
460Q386 571 259 571Q213 571 183 564ZM183 297V69Q218 62 272 62Q401 62 401 171Q401 231 368 264T275 297H183Z" />
<glyph unicode="C" glyph-name="C" horiz-adv-x="568" d="M518 61Q434 -12 335 -12Q191 -12 112 99Q50 187 50 310Q50 450 127 549Q203 645 320 645Q424 645 510 576L473 520Q405 565 338 565Q247 565 195 490Q148 422 148 310Q148 199 207 132Q261 70 347 70Q412
70 481 117L518 61Z" />
<glyph unicode="D" glyph-name="D" horiz-adv-x="627" d="M90 632Q165 645 249 645Q414 645 502 546Q577 462 577 323Q577 154 483 66Q400 -12 255 -12Q165 -12 90 1V632ZM183 69Q215 62 255 62Q368 62 426 134Q479 200 479 319Q479 447 405 515Q345 571 252 571Q211
571 183 564V69Z" />
<glyph unicode="E" glyph-name="E" horiz-adv-x="526" d="M82 633H468V556H175V367H421V290H175V77H481V0H82V633Z" />
<glyph unicode="F" glyph-name="F" horiz-adv-x="513" d="M82 0V633H468V556H175V366H421V289H175V0H82Z" />
<glyph unicode="G" glyph-name="G" horiz-adv-x="594" d="M536 48Q434 -12 321 -12Q181 -12 107 102Q50 190 50 315Q50 451 129 549Q206 645 325 645Q424 645 510 576L473 520Q405 565 333 565Q250 565 198 493Q148 424 148 311Q148 190 205 125Q254 68 337 68Q393
68 446 89V262H333V343H536V48Z" />
<glyph unicode="H" glyph-name="H" horiz-adv-x="670" d="M182 0H90V633H182V367H487V633H580V0H487V290H182V0Z" />
<glyph unicode="I" glyph-name="I" horiz-adv-x="272" d="M182 633V0H90V633H182Z" />
<glyph unicode="J" glyph-name="J" horiz-adv-x="255" d="M165 633V-33Q165 -168 42 -168Q-23 -168 -85 -125L-53 -75Q-15 -97 20 -97Q73 -97 73 -26V633H165Z" />
<glyph unicode="K" glyph-name="K" horiz-adv-x="550" d="M180 308V0H90V633H180V360H181L400 633H513L269 335L535 0H414L181 308H180Z" />
<glyph unicode="L" glyph-name="L" horiz-adv-x="473" d="M90 0V633H183V77H428V0H90Z" />
<glyph unicode="M" glyph-name="M" horiz-adv-x="800" d="M182 521V0H90V633H208Q285 473 370 195Q389 133 399 100Q408 129 419 164Q513 464 591 633H710V0H617V523Q578 384 437 0H363Q318 105 261 271T182 521Z" />
<glyph unicode="N" glyph-name="N" horiz-adv-x="675" d="M182 479V0H90V633H171Q371 343 492 143V633H585V0H502Q400 141 182 479Z" />
<glyph unicode="O" glyph-name="O" horiz-adv-x="654" d="M327 -12Q186 -12 110 99Q50 187 50 313Q50 461 129 555Q204 645 327 645Q467 645 544 530Q604 440 604 313Q604 166 525 75Q450 -12 327 -12ZM327 68Q420 68 467 145Q506 209 506 313Q506 434 455 502Q408
565 327 565Q235 565 187 484Q148 418 148 313Q148 193 199 128Q246 68 327 68Z" />
<glyph unicode="P" glyph-name="P" horiz-adv-x="532" d="M90 0V632Q178 645 252 645Q482 645 482 451Q482 346 412 292Q355 248 266 248Q223 248 183 255V0H90ZM183 564V330Q223 323 266 323Q384 323 384 451Q384 571 257 571Q211 571 183 564Z" />
<glyph unicode="Q" glyph-name="Q" horiz-adv-x="654" d="M389 -5Q356 -12 327 -12Q186 -12 110 98Q50 186 50 312Q50 462 130 556Q206 645 327 645Q467 645 544 530Q604 439 604 312Q604 216 568 140T467 24L591 -107H483L389 -5ZM148 312Q148 192 199 127Q246
68 327 68Q420 68 467 144Q506 208 506 312Q506 433 455 502Q408 565 327 565Q235 565 187 484Q148 417 148 312Z" />
<glyph unicode="R" glyph-name="R" horiz-adv-x="529" d="M90 0V632Q178 645 252 645Q482 645 482 451Q482 325 378 273L504 0H410L296 250Q283 248 258 248Q223 248 183 255V0H90ZM183 564V330Q223 323 258 323Q384 323 384 451Q384 571 257 571Q211 571 183 564Z" />
<glyph unicode="S" glyph-name="S" horiz-adv-x="529" d="M402 532Q334 566 265 566Q216 566 185 544T154 486Q154 423 237 392Q361 346 413 296T465 171Q465 81 396 30Q340 -12 257 -12Q158 -12 51 56L91 113Q158 72 247 72Q369 72 369 175Q369 255 266 290Q158
327 110 372T61 481Q61 557 120 603Q174 645 262 645Q361 645 442 589L402 532Z" />
<glyph unicode="T" glyph-name="T" horiz-adv-x="538" d="M215 556H25V633H513V556H308V0H215V556Z" />
<glyph unicode="U" glyph-name="U" horiz-adv-x="644" d="M554 265Q554 -12 322 -12Q90 -12 90 265V633H184V244Q184 68 322 68Q460 68 460 244V633H554V265Z" />
<glyph unicode="V" glyph-name="V" horiz-adv-x="561" d="M113 633L281 142L448 633H546L317 0H244L15 633H113Z" />
<glyph unicode="W" glyph-name="W" horiz-adv-x="854" d="M377 633H477L611 142L741 633H839L654 0H573Q502 216 427 499Q352 216 281 0H200L15 633H113L243 142L377 633Z" />
<glyph unicode="X" glyph-name="X" horiz-adv-x="585" d="M566 633L358 327L570 0H463L297 270L122 0H15L242 327L47 633H154L305 395L459 633H566Z" />
<glyph unicode="Y" glyph-name="Y" horiz-adv-x="551" d="M15 633H114L276 325L437 633H536L322 249V0H230V249L15 633Z" />
<glyph unicode="Z" glyph-name="Z" horiz-adv-x="478" d="M446 552Q323 376 192 161Q148 89 138 77H453V0H25V71Q125 215 273 449Q334 546 343 556H34V633H446V552Z" />
<glyph unicode="[" glyph-name="bracketleft" horiz-adv-x="349" d="M292 -140H91V645H292V575H175V-70H292V-140Z" />
<glyph unicode="\" glyph-name="backslash" horiz-adv-x="327" d="M277 -30L-38 633H37L352 -30H277Z" />
<glyph unicode="]" glyph-name="bracketright" horiz-adv-x="349" d="M57 645H258V-140H57V-70H174V575H57V645Z" />
<glyph unicode="^" glyph-name="asciicircum" horiz-adv-x="428" d="M179 609H249L393 313H314L213 517L119 313H35L179 609Z" />
<glyph unicode="_" glyph-name="underscore" horiz-adv-x="404" d="M399 -100H5V-30H399V-100Z" />
<glyph unicode="`" glyph-name="grave" horiz-adv-x="200" d="M118 532L25 655H115L175 532H118Z" />
<glyph unicode="a" glyph-name="a" horiz-adv-x="495" d="M422 0H355L345 47Q291 -12 199 -12Q129 -12 89 26T48 131Q48 206 109 246T284 287H337V292Q337 396 232 396Q165 396 107 353L81 399Q159 466 260 466Q422 466 422 273V0ZM336 229H292Q138 229 138 137Q138
99 160 77T221 55Q259 55 292 74T336 124V229Z" />
<glyph unicode="b" glyph-name="b" horiz-adv-x="549" d="M145 0H78V599L164 645V406Q209 466 293 466Q394 466 452 392Q501 330 501 236Q501 112 429 44Q371 -12 288 -12Q248 -12 209 5T155 47L145 0ZM164 311V131Q171 100 203 77T272 54Q333 54 371 102T409
226Q409 313 369 359Q334 399 279 399Q241 399 208 374T164 311Z" />
<glyph unicode="c" glyph-name="c" horiz-adv-x="481" d="M439 46Q381 -12 283 -12Q171 -12 105 62Q48 127 48 225Q48 335 122 405Q186 466 277 466Q365 466 432 412L408 364Q355 400 292 400Q225 400 182 350T139 222Q139 146 187 98Q231 55 297 55Q365 55 412
96L439 46Z" />
<glyph unicode="d" glyph-name="d" horiz-adv-x="549" d="M404 0L391 48Q346 -12 256 -12Q155 -12 97 62Q48 124 48 218Q48 342 120 410Q178 466 261 466Q337 466 385 418V595L471 643V0H404ZM385 143V323Q378 354 346 377T276 400Q215 400 177 352T139 228Q139
141 179 95Q214 55 269 55Q307 55 340 80T385 143Z" />
<glyph unicode="e" glyph-name="e" horiz-adv-x="512" d="M464 198H144Q151 132 192 94T297 55Q359 55 423 93L449 44Q379 -12 283 -12Q173 -12 108 57Q48 121 48 225Q48 331 113 402Q172 466 258 466Q363 466 419 387Q464 324 464 228V198ZM141 265H376Q374 330
344 365T261 401Q211 401 179 364T141 265Z" />
<glyph unicode="f" glyph-name="f" horiz-adv-x="359" d="M42 384V454H109V518Q109 645 225 645Q289 645 344 604L314 558Q280 578 245 578Q195 578 195 512V454H316V384H195V0H109V384H42Z" />
<glyph unicode="g" glyph-name="g" horiz-adv-x="549" d="M385 43V48Q340 -12 256 -12Q155 -12 97 62Q48 124 48 218Q48 342 120 410Q178 466 261 466Q301 466 340 449T394 407L404 454H471V43Q471 -191 266 -191Q177 -191 93 -125L119 -79Q180 -121 255 -121Q385
-121 385 43ZM385 143V323Q378 354 346 377T276 400Q215 400 177 352T139 228Q139 141 179 95Q214 55 269 55Q307 55 340 80T385 143Z" />
<glyph unicode="h" glyph-name="h" horiz-adv-x="545" d="M164 645V404Q220 466 305 466Q472 466 472 270V0H386V265Q386 392 274 392Q243 392 211 377T164 341V0H78V599L164 645Z" />
<glyph unicode="i" glyph-name="i" horiz-adv-x="246" d="M166 454V0H80V454H166ZM73 594Q73 615 88 630T124 645Q145 645 160 630T176 594Q176 572 161 557T124 542Q102 542 88 557T73 594Z" />
<glyph unicode="j" glyph-name="j" horiz-adv-x="251" d="M171 454V-64Q171 -191 55 -191Q-9 -191 -64 -150L-34 -104Q0 -124 35 -124Q85 -124 85 -58V454H171ZM75 594Q75 615 90 630T126 645Q147 645 162 630T178 594Q178 572 163 557T126 542Q104 542 90 557T75 594Z" />
<glyph unicode="k" glyph-name="k" horiz-adv-x="456" d="M435 454L229 275L441 0H340L164 240V0H78V599L164 645V316L317 454H435Z" />
<glyph unicode="l" glyph-name="l" horiz-adv-x="242" d="M164 645V0H78V599L164 645Z" />
<glyph unicode="m" glyph-name="m" horiz-adv-x="853" d="M158 409H163Q214 466 304 466Q417 466 451 385Q509 466 616 466Q780 466 780 272V0H694V253Q694 328 668 360T579 392Q517 392 466 337Q472 309 472 272V0H386V260Q386 329 359 360T270 392Q241 392 210
377T164 341V0H78V454H150L158 409Z" />
<glyph unicode="n" glyph-name="n" horiz-adv-x="545" d="M158 409H163Q214 466 305 466Q472 466 472 270V0H386V265Q386 392 274 392Q243 392 211 377T164 341V0H78V454H150L158 409Z" />
<glyph unicode="o" glyph-name="o" horiz-adv-x="538" d="M270 -12Q167 -12 103 65Q48 131 48 226Q48 336 115 404Q175 466 269 466Q377 466 439 387Q490 321 490 226Q490 117 420 48Q358 -12 270 -12ZM268 56Q328 56 363 102T399 226Q399 307 361 355Q326 400
269 400Q211 400 175 352T139 226Q139 142 179 96Q214 56 268 56Z" />
<glyph unicode="p" glyph-name="p" horiz-adv-x="549" d="M78 454H145L155 407Q211 466 293 466Q394 466 452 392Q501 330 501 236Q501 112 429 44Q371 -12 288 -12Q209 -12 164 36V-179H78V454ZM164 313V131Q171 100 203 77T272 54Q333 54 371 102T409 226Q409
313 369 359Q334 399 279 399Q242 399 207 373T164 313Z" />
<glyph unicode="q" glyph-name="q" horiz-adv-x="549" d="M404 454H471V-179H385V48Q340 -12 256 -12Q155 -12 97 62Q48 124 48 218Q48 342 120 410Q178 466 261 466Q301 466 340 449T394 407L404 454ZM385 143V323Q378 354 346 377T276 400Q215 400 177 352T139
228Q139 141 179 95Q214 55 269 55Q307 55 340 80T385 143Z" />
<glyph unicode="r" glyph-name="r" horiz-adv-x="407" d="M160 409H164Q211 466 274 466Q354 466 392 404L320 359Q287 392 248 392Q198 392 164 341V0H78V454H152L160 409Z" />
<glyph unicode="s" glyph-name="s" horiz-adv-x="426" d="M325 372Q275 400 215 400Q182 400 162 385T142 343Q142 314 160 299T230 269Q307 247 337 222Q378 187 378 123Q378 62 334 25T216 -12Q119 -12 48 42L78 90Q134 55 203 55Q295 55 295 125Q295 155 276
170T201 200Q55 236 55 341Q55 395 98 430T208 466Q292 466 355 419L325 372Z" />
<glyph unicode="t" glyph-name="t" horiz-adv-x="386" d="M196 384L195 120Q195 54 245 54Q280 54 314 74L344 28Q289 -13 225 -13Q109 -13 109 114V384H42V454H110V547L196 592V454H332V384H196Z" />
<glyph unicode="u" glyph-name="u" horiz-adv-x="534" d="M370 454H456V0H390L383 52H377Q354 24 315 6T237 -12Q78 -12 78 182V454H164V201Q164 62 264 62Q293 62 324 77T370 113V454Z" />
<glyph unicode="v" glyph-name="v" horiz-adv-x="457" d="M266 0H188L15 454H105L227 104L350 454H442L266 0Z" />
<glyph unicode="w" glyph-name="w" horiz-adv-x="700" d="M252 0H167L15 454H105L209 103L304 454H398L489 103L594 454H685L530 0H445L350 345L252 0Z" />
<glyph unicode="x" glyph-name="x" horiz-adv-x="445" d="M428 454L274 234L433 0H338L224 172L105 0H10L179 231L36 454H131L226 297L333 454H428Z" />
<glyph unicode="y" glyph-name="y" horiz-adv-x="471" d="M456 454L261 -68Q214 -191 134 -191Q80 -191 22 -148L48 -104Q82 -124 107 -124Q153 -124 180 -58L203 0H185L15 454H104L233 94L366 454H456Z" />
<glyph unicode="z" glyph-name="z" horiz-adv-x="421" d="M396 0H25V73L287 384H41V454H390V381L128 70H396V0Z" />
<glyph unicode="{" glyph-name="braceleft" horiz-adv-x="390" d="M48 219V288Q95 288 123 325T152 423V474Q152 571 184 607T303 644H333V574H303Q261 574 249 555T236 474V423Q236 356 215 317T143 253Q193 230 214 191T236 84V31Q236 -31 248 -50T303 -69H333V-139H303Q208
-139 177 -93Q152 -56 152 31V84Q152 145 124 182T48 219Z" />
<glyph unicode="|" glyph-name="bar" horiz-adv-x="260" d="M170 662V-179H90V662H170Z" />
<glyph unicode="}" glyph-name="braceright" horiz-adv-x="390" d="M342 288V219Q295 219 267 182T238 84V31Q238 -66 206 -102T87 -139H57V-69H87Q129 -69 141 -50T154 31V84Q154 152 175 191T247 253Q197 277 176 316T154 423V474Q154 536 142 555T87 574H57V644H87Q182
644 213 598Q238 561 238 474V423Q238 362 266 325T342 288Z" />
<glyph unicode="~" glyph-name="asciitilde" horiz-adv-x="495" d="M453 275Q428 182 356 182Q323 182 252 211Q240 216 221 225Q179 243 151 243Q111 243 81 188L42 215Q72 310 149 310Q186 310 265 275Q323 249 347 249Q388 249 409 303L453 275Z" />
<glyph unicode="&#xa0;" glyph-name="space" horiz-adv-x="233" />
<glyph unicode="&#xa1;" glyph-name="exclamdown" horiz-adv-x="238" d="M74 296H160V-178H74V296ZM67 416Q67 468 120 468Q173 468 173 415Q173 363 120 363Q69 363 67 413Q67 414 67 416Z" />
<glyph unicode="&#xa2;" glyph-name="cent" horiz-adv-x="481" d="M296 -12V-52H256V-11Q155 -2 98 70Q48 133 48 225Q48 328 114 397Q172 457 256 465V512H296V465Q369 462 432 412L408 364Q356 399 296 400V55H297Q365 55 412 96L439 46Q386 -7 296 -12ZM256
395Q202 382 171 335T139 222Q139 162 171 118T256 60V395Z" />
<glyph unicode="&#xa3;" glyph-name="sterling" horiz-adv-x="483" d="M362 303H205V77H440V0H44V77H112V303H42V373H112V429Q114 645 298 645Q382 645 468 576L431 520Q363 565 308 565Q205 565 205 436V373H362V303Z" />
<glyph unicode="&#xa4;" glyph-name="currency" horiz-adv-x="482" d="M337 169Q296 142 240 142Q182 142 142 169L69 97Q66 94 61 94Q51 94 37 108T21 134Q21 139 24 142L95 211Q65 256 65 310Q65 366 97 411L24 483Q21 486 21 491Q21 501 35 515T61 530Q65 530
68 527L143 453Q186 480 240 480Q292 480 337 453L412 526Q415 530 420 530Q432 530 445 517T458 493Q458 488 455 485L382 412Q413 367 413 310Q413 256 382 212L456 140Q459 137 459 132Q459 120 446 106T421 91Q416 91 413 94L337 169ZM241 208Q287 208 313
235T339 311Q339 360 313 387T241 415Q195 415 167 387T138 311Q138 264 166 236T241 208Z" />
<glyph unicode="&#xa5;" glyph-name="yen" horiz-adv-x="490" d="M195 0V154H94V208H195V249H94V309H193L32 633H120L245 390L368 633H457L293 309H396V249H291V208H396V154H291V0H195Z" />
<glyph unicode="&#xa6;" glyph-name="brokenbar" horiz-adv-x="236" d="M78 229H158V-180H78V229ZM158 662V287H78V662H158Z" />
<glyph unicode="&#xa7;" glyph-name="section" horiz-adv-x="462" d="M344 132Q400 89 400 12Q400 -54 351 -97T227 -140Q135 -140 66 -89L96 -43Q148 -71 210 -71Q313 -71 313 19Q313 83 217 110Q50 158 50 267Q50 355 133 389Q69 437 69 507Q69 569 114 607T232
645Q316 645 379 598L349 551Q299 579 239 579Q201 579 179 561T156 513Q156 446 264 409Q344 381 378 343T412 243Q412 167 344 132ZM174 364Q135 336 135 282Q139 240 164 216T248 175Q273 168 297 158Q299 158 300 159Q329 186 329 236Q329 274 309 297T240
337Q204 349 174 364Z" />
<glyph unicode="&#xa8;" glyph-name="dieresis" horiz-adv-x="336" d="M34 594Q34 615 49 630T86 645Q106 645 121 630T137 594Q137 572 122 557T86 542Q63 542 49 556T34 594ZM196 594Q196 615 211 630T247 645Q268 645 283 630T299 594Q299 572 284 557T247
542Q225 542 211 557T196 594Z" />
<glyph unicode="&#xa9;" glyph-name="copyright" horiz-adv-x="699" d="M481 459L463 421Q422 449 370 449Q316 449 282 410T248 308Q248 249 283 212T375 174Q427 174 466 207L487 167Q440 121 363 121Q274 121 221 180Q176 231 176 310Q176 397 235 453Q286
502 358 502Q431 502 481 459ZM48 315Q48 448 148 539Q234 617 349 617Q483 617 573 517Q651 431 651 315Q651 182 551 92Q465 14 349 14Q216 14 126 114Q48 200 48 315ZM113 314Q113 207 191 136Q258 75 351 75Q458 75 529 153Q591 221 591 314Q591 421 512 492Q444
553 351 553Q243 553 173 475Q113 407 113 314Z" />
<glyph unicode="&#xaa;" glyph-name="ordfeminine" horiz-adv-x="268" d="M236 406H191L187 436Q160 400 117 400Q80 400 57 420T33 473Q33 511 65 532T155 554H182V556Q182 602 134 602Q103 602 64 574L51 611Q94 645 143 645Q236 645 236 544V406ZM181 518H165Q90
518 90 476Q90 445 123 445Q169 445 181 490V518Z" />
<glyph unicode="&#xab;" glyph-name="guillemotleft" horiz-adv-x="545" d="M279 12Q214 22 151 83T50 231Q87 318 150 379T279 451V374Q185 329 138 231Q185 134 279 89V12ZM505 12Q440 22 377 83T276 231Q313 318 376 379T505 451V374Q410 329 365 231Q411 132
505 89V12Z" />
<glyph unicode="&#xac;" glyph-name="logicalnot" horiz-adv-x="477" d="M342 0V153H42V231H435V0H342Z" />
<glyph unicode="&#xae;" glyph-name="registered" horiz-adv-x="413" d="M205 470H191V410H151V567H214Q269 567 269 520Q269 489 243 477L278 410H231L205 470ZM205 537H191V498H205Q229 498 229 518Q229 537 205 537ZM45 484Q45 555 99 604Q145 645 207 645Q279
645 327 592Q368 546 368 484Q368 412 315 364Q269 322 207 322Q135 322 87 376Q45 422 45 484ZM85 484Q85 432 120 397T207 361Q258 361 294 397T330 484Q330 534 294 570T207 606Q156 606 121 571T85 484Z" />
<glyph unicode="&#xaf;" glyph-name="overscore" horiz-adv-x="246" d="M230 568H16V633H230V568Z" />
<glyph unicode="&#xb0;" glyph-name="degree" horiz-adv-x="280" d="M25 536Q25 587 56 619T139 652Q191 652 223 620T255 536Q255 485 223 454T139 422Q89 422 57 454T25 536ZM66 536Q66 503 85 484T138 464Q214 464 214 536Q214 611 138 611Q66 611 66 536Z" />
<glyph unicode="&#xb1;" glyph-name="plusminus" horiz-adv-x="518" d="M219 242H42V312H219V454H299V312H476V242H299V100H219V242ZM476 0H42V70H476V0Z" />
<glyph unicode="&#xb2;" glyph-name="twosuperior" horiz-adv-x="377" d="M61 316V376L173 460Q226 506 226 537Q226 585 167 585Q127 585 90 555L56 591Q114 645 180 645Q233 645 266 617T299 542Q299 477 231 424L170 376H295V316H61Z" />
<glyph unicode="&#xb3;" glyph-name="threesuperior" horiz-adv-x="394" d="M142 457V516H193Q238 516 238 550Q238 585 190 585Q153 585 110 561L78 595Q132 645 199 645Q311 645 311 554Q311 530 294 512T251 491Q316 474 316 406Q316 366 281 340T192 314Q131
314 78 363L112 399Q151 374 187 374Q243 374 243 415Q243 457 190 457H142Z" />
<glyph unicode="&#xb4;" glyph-name="acute" horiz-adv-x="200" d="M175 655L82 532H25L85 655H175Z" />
<glyph unicode="&#xb5;" glyph-name="mu" horiz-adv-x="578" d="M164 2V-179H78V454H164V201Q164 62 264 62Q293 62 324 77T370 113V454H456V105Q456 75 462 65T486 54Q501 54 523 74L553 28Q509 -13 466 -13Q391 -13 376 51Q353 24 314 6T237 -12Q197 -12 164 2Z" />
<glyph unicode="&#xb6;" glyph-name="paragraph" horiz-adv-x="476" d="M386 0H336V633H386V0ZM255 0V359H212Q46 359 46 493Q46 559 87 596T203 633H306V0H255Z" />
<glyph unicode="&#xb7;" glyph-name="middot" horiz-adv-x="187" d="M39 365Q39 386 54 401T91 417Q115 417 131 402T148 365Q148 308 91 308Q68 308 54 324T39 365Z" />
<glyph unicode="&#xb8;" glyph-name="cedilla" horiz-adv-x="219" d="M60 -55L75 10H129L117 -28Q126 -27 134 -27Q194 -27 194 -86Q194 -119 168 -139T101 -160Q62 -160 25 -144L38 -105Q73 -116 97 -116Q137 -116 137 -86Q137 -53 93 -53Q77 -53 60 -55Z" />
<glyph unicode="&#xb9;" glyph-name="onesuperior" horiz-adv-x="306" d="M228 633V318H158V548L79 476L35 522L152 633H228Z" />
<glyph unicode="&#xba;" glyph-name="ordmasculine" horiz-adv-x="291" d="M145 400Q97 400 65 435T33 522Q33 577 64 611T145 645Q195 645 226 611T258 522Q258 469 226 435T145 400ZM144 444Q201 444 201 522Q201 601 145 601Q91 601 91 522Q91 444 144 444Z" />
<glyph unicode="&#xbb;" glyph-name="guillemotright" horiz-adv-x="545" d="M40 12V89Q133 132 181 231Q134 329 40 374V451Q105 441 168 380T269 231Q232 144 169 83T40 12ZM266 12V89Q360 132 407 231Q362 329 266 374V451Q332 441 395 380T495 231Q459 144
395 83T266 12Z" />
<glyph unicode="&#xbc;" glyph-name="onequarter" horiz-adv-x="862" d="M494 127L655 318H726V122H784V62H726V0H656V62H494V127ZM571 122H656V230L571 122ZM271 633V318H201V548L122 476L78 522L195 633H271ZM652 633L268 -30H206L590 633H652Z" />
<glyph unicode="&#xbd;" glyph-name="onehalf" horiz-adv-x="861" d="M271 633V318H201V548L122 476L78 522L195 633H271ZM545 0V60L657 144Q710 190 710 221Q710 269 651 269Q611 269 574 239L540 275Q598 329 664 329Q717 329 750 301T783 226Q783 161 715 108L654
60H779V0H545ZM642 633L258 -30H196L580 633H642Z" />
<glyph unicode="&#xbe;" glyph-name="threequarters" horiz-adv-x="894" d="M513 127L675 318H745V122H803V62H745V0H675V62H513V127ZM590 122H675V230L590 122ZM142 457V516H193Q238 516 238 550Q238 585 190 585Q153 585 110 561L78 595Q132 645 199 645Q311
645 311 554Q311 530 294 512T251 491Q316 474 316 406Q316 366 281 340T192 314Q131 314 78 363L112 399Q151 374 187 374Q243 374 243 415Q243 457 190 457H142ZM655 633L271 -30H209L593 633H655Z" />
<glyph unicode="&#xbf;" glyph-name="questiondown" horiz-adv-x="403" d="M199 313H285V218Q285 177 274 157T220 103Q138 37 138 -30Q138 -71 164 -95T234 -120Q276 -120 330 -88L361 -138Q288 -192 208 -192Q139 -192 96 -149T52 -38Q52 59 130 124Q133 126
139 131Q143 135 145 137Q181 166 190 182T199 234V313ZM294 408Q294 387 279 372T242 356Q218 356 202 371T185 408Q185 465 242 465Q265 465 279 449T294 408Z" />
<glyph unicode="&#xc0;" glyph-name="Agrave" horiz-adv-x="576" d="M244 633H332L561 0H466L418 143H159L110 0H15L244 633ZM288 521L185 220H391L288 521ZM255 700L162 823H252L312 700H255Z" />
<glyph unicode="&#xc1;" glyph-name="Aacute" horiz-adv-x="576" d="M244 633H332L561 0H466L418 143H159L110 0H15L244 633ZM288 521L185 220H391L288 521ZM412 823L319 700H262L322 823H412Z" />
<glyph unicode="&#xc2;" glyph-name="Acircumflex" horiz-adv-x="576" d="M332 633L561 0H466L418 143H159L110 0H15L244 633H332ZM185 220H391L288 521L185 220ZM259 823H317L402 700H335L289 770H286L239 700H173L259 823Z" />
<glyph unicode="&#xc3;" glyph-name="Atilde" horiz-adv-x="576" d="M332 633L561 0H466L418 143H159L110 0H15L244 633H332ZM185 220H391L288 521L185 220ZM428 787Q404 702 345 702Q320 702 285 722Q283 723 280 725Q278 726 276 727Q248 744 233 744Q196 744
180 700L147 722Q171 807 233 807Q259 807 305 781Q307 780 311 777Q335 763 345 763Q371 763 394 810L428 787Z" />
<glyph unicode="&#xc4;" glyph-name="Adieresis" horiz-adv-x="576" d="M244 633H332L561 0H466L418 143H159L110 0H15L244 633ZM288 521L185 220H391L288 521ZM153 762Q153 783 168 798T205 813Q225 813 240 798T256 762Q256 740 241 725T205 710Q182 710 168
724T153 762ZM315 762Q315 783 330 798T366 813Q387 813 402 798T418 762Q418 740 403 725T366 710Q344 710 330 725T315 762Z" />
<glyph unicode="&#xc5;" glyph-name="Aring" horiz-adv-x="576" d="M332 633L561 0H466L418 143H159L110 0H15L244 633H332ZM185 220H391L288 521L185 220ZM289 656Q256 656 232 679T208 737Q208 771 232 794T289 818Q323 818 347 795T371 737Q371 703 347 680T289
656ZM289 705Q322 707 322 737Q322 769 289 769Q257 769 257 737Q257 707 289 705Z" />
<glyph unicode="&#xc6;" glyph-name="AE" horiz-adv-x="812" d="M754 633V556H461V367H707V290H461V77H767V0H368V143H168L110 0H15L286 633H754ZM339 556L200 220H368V556H339Z" />
<glyph unicode="&#xc7;" glyph-name="Ccedilla" horiz-adv-x="566" d="M302 -10Q173 1 103 109Q48 194 48 310Q48 450 125 549Q201 645 318 645Q422 645 508 576L471 520Q403 565 336 565Q245 565 193 490Q146 422 146 310Q146 199 205 132Q259 70 345 70Q410
70 479 117L516 61Q442 -3 354 -11L349 -28Q358 -27 366 -27Q426 -27 426 -86Q426 -119 400 -139T333 -160Q294 -160 257 -144L270 -105Q305 -116 329 -116Q369 -116 369 -86Q369 -53 325 -53Q309 -53 292 -55L302 -10Z" />
<glyph unicode="&#xc8;" glyph-name="Egrave" horiz-adv-x="526" d="M82 633H468V556H175V367H421V290H175V77H481V0H82V633ZM271 701L178 824H268L328 701H271Z" />
<glyph unicode="&#xc9;" glyph-name="Eacute" horiz-adv-x="526" d="M82 633H468V556H175V367H421V290H175V77H481V0H82V633ZM367 819L274 696H217L277 819H367Z" />
<glyph unicode="&#xca;" glyph-name="Ecircumflex" horiz-adv-x="526" d="M82 633H468V556H175V367H421V290H175V77H481V0H82V633ZM246 823H304L389 700H322L276 770H273L226 700H160L246 823Z" />
<glyph unicode="&#xcb;" glyph-name="Edieresis" horiz-adv-x="526" d="M82 633H468V556H175V367H421V290H175V77H481V0H82V633ZM145 762Q145 783 160 798T197 813Q217 813 232 798T248 762Q248 740 233 725T197 710Q174 710 160 724T145 762ZM307 762Q307 783
322 798T358 813Q379 813 394 798T410 762Q410 740 395 725T358 710Q336 710 322 725T307 762Z" />
<glyph unicode="&#xcc;" glyph-name="Igrave" horiz-adv-x="272" d="M182 633V0H90V633H182ZM107 700L14 823H104L164 700H107Z" />
<glyph unicode="&#xcd;" glyph-name="Iacute" horiz-adv-x="272" d="M182 633V0H90V633H182ZM259 823L166 700H109L169 823H259Z" />
<glyph unicode="&#xce;" glyph-name="Icircumflex" horiz-adv-x="272" d="M182 0H90V633H182V0ZM110 834H168L253 711H186L140 781H137L90 711H24L110 834Z" />
<glyph unicode="&#xcf;" glyph-name="Idieresis" horiz-adv-x="272" d="M182 633V0H90V633H182ZM4 762Q4 783 19 798T56 813Q76 813 91 798T107 762Q107 740 92 725T56 710Q33 710 19 724T4 762ZM166 762Q166 783 181 798T217 813Q238 813 253 798T269 762Q269
740 254 725T217 710Q195 710 181 725T166 762Z" />
<glyph unicode="&#xd0;" glyph-name="Eth" horiz-adv-x="655" d="M118 292H41V362H118V632Q193 645 277 645Q442 645 530 546Q605 462 605 323Q605 154 511 66Q428 -12 283 -12Q193 -12 118 1V292ZM211 69Q243 62 283 62Q396 62 454 134Q507 200 507 319Q507 447
433 515Q373 571 280 571Q239 571 211 564V362H361V292H211V69Z" />
<glyph unicode="&#xd1;" glyph-name="Ntilde" horiz-adv-x="675" d="M182 479V0H90V633H171Q371 343 492 143V633H585V0H502Q400 141 182 479ZM475 778Q451 693 392 693Q367 693 332 713Q330 714 327 716Q325 717 323 718Q295 735 280 735Q243 735 227 691L194
713Q218 798 280 798Q306 798 352 772Q354 771 358 768Q382 754 392 754Q418 754 441 801L475 778Z" />
<glyph unicode="&#xd2;" glyph-name="Ograve" horiz-adv-x="654" d="M327 -12Q186 -12 110 99Q50 187 50 313Q50 461 129 555Q204 645 327 645Q467 645 544 530Q604 440 604 313Q604 166 525 75Q450 -12 327 -12ZM327 68Q420 68 467 145Q506 209 506 313Q506 434
455 502Q408 565 327 565Q235 565 187 484Q148 418 148 313Q148 193 199 128Q246 68 327 68ZM319 699L226 822H316L376 699H319Z" />
<glyph unicode="&#xd3;" glyph-name="Oacute" horiz-adv-x="654" d="M327 -12Q186 -12 110 99Q50 187 50 313Q50 461 129 555Q204 645 327 645Q467 645 544 530Q604 440 604 313Q604 166 525 75Q450 -12 327 -12ZM327 68Q420 68 467 145Q506 209 506 313Q506 434
455 502Q408 565 327 565Q235 565 187 484Q148 418 148 313Q148 193 199 128Q246 68 327 68ZM449 822L356 699H299L359 822H449Z" />
<glyph unicode="&#xd4;" glyph-name="Ocircumflex" horiz-adv-x="654" d="M327 -12Q186 -12 110 99Q50 187 50 313Q50 461 129 555Q204 645 327 645Q467 645 544 530Q604 440 604 313Q604 166 525 75Q450 -12 327 -12ZM327 68Q420 68 467 145Q506 209 506 313Q506
434 455 502Q408 565 327 565Q235 565 187 484Q148 418 148 313Q148 193 199 128Q246 68 327 68ZM306 822H364L449 699H382L336 769H333L286 699H220L306 822Z" />
<glyph unicode="&#xd5;" glyph-name="Otilde" horiz-adv-x="654" d="M327 -12Q186 -12 110 99Q50 187 50 313Q50 461 129 555Q204 645 327 645Q467 645 544 530Q604 440 604 313Q604 166 525 75Q450 -12 327 -12ZM327 68Q420 68 467 145Q506 209 506 313Q506 434
455 502Q408 565 327 565Q235 565 187 484Q148 418 148 313Q148 193 199 128Q246 68 327 68ZM469 787Q445 702 386 702Q361 702 326 722Q324 723 321 725Q319 726 317 727Q289 744 274 744Q237 744 221 700L188 722Q212 807 274 807Q300 807 346 781Q348 780 352
777Q376 763 386 763Q412 763 435 810L469 787Z" />
<glyph unicode="&#xd6;" glyph-name="Odieresis" horiz-adv-x="654" d="M327 -12Q186 -12 110 99Q50 187 50 313Q50 461 129 555Q204 645 327 645Q467 645 544 530Q604 440 604 313Q604 166 525 75Q450 -12 327 -12ZM327 68Q420 68 467 145Q506 209 506 313Q506
434 455 502Q408 565 327 565Q235 565 187 484Q148 418 148 313Q148 193 199 128Q246 68 327 68ZM193 762Q193 783 208 798T245 813Q265 813 280 798T296 762Q296 740 281 725T245 710Q222 710 208 724T193 762ZM355 762Q355 783 370 798T406 813Q427 813 442 798T458
762Q458 740 443 725T406 710Q384 710 370 725T355 762Z" />
<glyph unicode="&#xd7;" glyph-name="multiply" horiz-adv-x="501" d="M256 178L84 0L29 55L204 232L40 404L93 457L253 285L418 459L471 404L305 231L469 51L417 0L256 178Z" />
<glyph unicode="&#xd8;" glyph-name="Oslash" horiz-adv-x="654" d="M508 573Q604 479 604 313Q604 166 525 75Q450 -12 327 -12Q276 -12 230 4L213 -30H138L170 36Q113 78 82 151T50 313Q50 461 129 555Q204 645 327 645Q397 645 453 614L468 645H543L508 573ZM416
539Q377 565 327 565Q235 565 187 484Q148 418 148 313Q148 180 209 116L416 539ZM266 78Q296 68 327 68Q420 68 467 145Q506 209 506 313Q506 419 465 486L266 78Z" />
<glyph unicode="&#xd9;" glyph-name="Ugrave" horiz-adv-x="644" d="M554 265Q554 -12 322 -12Q90 -12 90 265V633H184V244Q184 68 322 68Q460 68 460 244V633H554V265ZM295 699L202 822H292L352 699H295Z" />
<glyph unicode="&#xda;" glyph-name="Uacute" horiz-adv-x="644" d="M554 265Q554 -12 322 -12Q90 -12 90 265V633H184V244Q184 68 322 68Q460 68 460 244V633H554V265ZM428 822L335 699H278L338 822H428Z" />
<glyph unicode="&#xdb;" glyph-name="Ucircumflex" horiz-adv-x="644" d="M90 265V633H184V244Q184 68 322 68Q460 68 460 244V633H554V265Q554 -12 322 -12Q90 -12 90 265ZM293 822H351L436 699H369L323 769H320L273 699H207L293 822Z" />
<glyph unicode="&#xdc;" glyph-name="Udieresis" horiz-adv-x="644" d="M90 265V633H184V244Q184 68 322 68Q460 68 460 244V633H554V265Q554 -12 322 -12Q90 -12 90 265ZM188 763Q188 784 203 799T240 814Q260 814 275 799T291 763Q291 741 276 726T240 711Q217
711 203 725T188 763ZM350 763Q350 784 365 799T401 814Q422 814 437 799T453 763Q453 741 438 726T401 711Q379 711 365 726T350 763Z" />
<glyph unicode="&#xdd;" glyph-name="Yacute" horiz-adv-x="551" d="M15 633H114L276 325L437 633H536L322 249V0H230V249L15 633ZM390 818L297 695H240L300 818H390Z" />
<glyph unicode="&#xde;" glyph-name="Thorn" horiz-adv-x="533" d="M90 0V633H182V525Q227 533 252 533Q482 533 482 339Q482 234 412 180Q355 136 266 136Q223 136 183 143V0H90ZM183 452V218Q223 211 266 211Q384 211 384 339Q384 459 257 459Q211 459 183 452Z" />
<glyph unicode="&#xdf;" glyph-name="germandbls" horiz-adv-x="510" d="M320 336Q462 298 462 168Q462 73 394 23Q346 -12 286 -12Q242 -12 196 10L215 66L217 65Q219 65 220 64Q252 54 272 54Q313 54 337 86T362 170Q362 235 338 263T255 291H220V367H252Q344
367 344 480Q344 524 318 551T251 579Q210 579 187 553T164 480V0H78V466Q78 645 252 645Q342 645 394 591Q437 546 437 481Q437 429 406 390T320 336Z" />
<glyph unicode="&#xe0;" glyph-name="agrave" horiz-adv-x="495" d="M422 0H355L345 47Q291 -12 199 -12Q129 -12 89 26T48 131Q48 206 109 246T284 287H337V292Q337 396 232 396Q165 396 107 353L81 399Q159 466 260 466Q422 466 422 273V0ZM336 229H292Q138
229 138 137Q138 99 160 77T221 55Q259 55 292 74T336 124V229ZM235 527L142 650H232L292 527H235Z" />
<glyph unicode="&#xe1;" glyph-name="aacute" horiz-adv-x="495" d="M422 0H355L345 47Q291 -12 199 -12Q129 -12 89 26T48 131Q48 206 109 246T284 287H337V292Q337 396 232 396Q165 396 107 353L81 399Q159 466 260 466Q422 466 422 273V0ZM336 229H292Q138
229 138 137Q138 99 160 77T221 55Q259 55 292 74T336 124V229ZM355 650L262 527H205L265 650H355Z" />
<glyph unicode="&#xe2;" glyph-name="acircumflex" horiz-adv-x="495" d="M422 0H355L345 47Q291 -12 199 -12Q129 -12 89 26T48 131Q48 206 109 246T284 287H337V292Q337 396 232 396Q165 396 107 353L81 399Q159 466 260 466Q422 466 422 273V0ZM336 229H292Q138
229 138 137Q138 99 160 77T221 55Q259 55 292 74T336 124V229ZM226 655H284L369 532H302L256 602H253L206 532H140L226 655Z" />
<glyph unicode="&#xe3;" glyph-name="atilde" horiz-adv-x="495" d="M422 0H355L345 47Q291 -12 199 -12Q129 -12 89 26T48 131Q48 206 109 246T284 287H337V292Q337 396 232 396Q165 396 107 353L81 399Q159 466 260 466Q422 466 422 273V0ZM336 229H292Q138
229 138 137Q138 99 160 77T221 55Q259 55 292 74T336 124V229ZM390 621Q366 536 307 536Q282 536 247 556Q245 557 242 559Q240 560 238 561Q210 578 195 578Q158 578 142 534L109 556Q133 641 195 641Q221 641 267 615Q269 614 273 611Q297 597 307 597Q333 597
356 644L390 621Z" />
<glyph unicode="&#xe4;" glyph-name="adieresis" horiz-adv-x="495" d="M422 0H355L345 47Q291 -12 199 -12Q129 -12 89 26T48 131Q48 206 109 246T284 287H337V292Q337 396 232 396Q165 396 107 353L81 399Q159 466 260 466Q422 466 422 273V0ZM336 229H292Q138
229 138 137Q138 99 160 77T221 55Q259 55 292 74T336 124V229ZM127 594Q127 615 142 630T179 645Q199 645 214 630T230 594Q230 572 215 557T179 542Q156 542 142 556T127 594ZM289 594Q289 615 304 630T340 645Q361 645 376 630T392 594Q392 572 377 557T340
542Q318 542 304 557T289 594Z" />
<glyph unicode="&#xe5;" glyph-name="aring" horiz-adv-x="495" d="M422 0H355L345 47Q291 -12 199 -12Q129 -12 89 26T48 131Q48 206 109 246T284 287H337V292Q337 396 232 396Q165 396 107 353L81 399Q159 466 260 466Q422 466 422 273V0ZM336 229H292Q138 229
138 137Q138 99 160 77T221 55Q259 55 292 74T336 124V229ZM252 505Q218 505 195 529T171 586Q171 620 194 644T252 668Q285 668 309 644T333 586Q333 553 309 529T252 505ZM252 554Q284 557 284 586Q284 619 252 619Q220 619 220 586Q220 556 252 554Z" />
<glyph unicode="&#xe6;" glyph-name="ae" horiz-adv-x="795" d="M747 198H429L432 167Q463 55 580 55Q642 55 706 93L732 44Q662 -12 566 -12Q436 -12 375 82H374Q313 -12 199 -12Q129 -12 89 26T48 131Q48 206 109 246T284 287H337V292Q337 396 232 396Q165 396
107 353L81 399Q159 466 260 466Q353 466 394 396Q451 466 541 466Q646 466 702 387Q747 324 747 228V198ZM336 229H292Q138 229 138 137Q138 99 160 77T221 55Q259 55 292 74T336 124V229ZM424 265H659Q657 330 627 365T544 401Q494 401 462 364T424 265Z" />
<glyph unicode="&#xe7;" glyph-name="ccedilla" horiz-adv-x="481" d="M246 -55L256 -11Q155 -2 98 70Q48 133 48 225Q48 335 122 405Q186 466 277 466Q365 466 432 412L408 364Q355 400 292 400Q225 400 182 350T139 222Q139 146 187 98Q231 55 297 55Q365 55
412 96L439 46Q390 -3 308 -11L303 -28Q312 -27 320 -27Q380 -27 380 -86Q380 -119 354 -139T287 -160Q248 -160 211 -144L224 -105Q259 -116 283 -116Q323 -116 323 -86Q323 -53 279 -53Q263 -53 246 -55Z" />
<glyph unicode="&#xe8;" glyph-name="egrave" horiz-adv-x="512" d="M464 198H144Q151 132 192 94T297 55Q359 55 423 93L449 44Q379 -12 283 -12Q173 -12 108 57Q48 121 48 225Q48 331 113 402Q172 466 258 466Q363 466 419 387Q464 324 464 228V198ZM141 265H376Q374
330 344 365T261 401Q211 401 179 364T141 265ZM233 532L140 655H230L290 532H233Z" />
<glyph unicode="&#xe9;" glyph-name="eacute" horiz-adv-x="512" d="M464 198H144Q151 132 192 94T297 55Q359 55 423 93L449 44Q379 -12 283 -12Q173 -12 108 57Q48 121 48 225Q48 331 113 402Q172 466 258 466Q363 466 419 387Q464 324 464 228V198ZM141 265H376Q374
330 344 365T261 401Q211 401 179 364T141 265ZM377 655L284 532H227L287 655H377Z" />
<glyph unicode="&#xea;" glyph-name="ecircumflex" horiz-adv-x="512" d="M464 198H144Q151 132 192 94T297 55Q359 55 423 93L449 44Q379 -12 283 -12Q173 -12 108 57Q48 121 48 225Q48 331 113 402Q172 466 258 466Q363 466 419 387Q464 324 464 228V198ZM141
265H376Q374 330 344 365T261 401Q211 401 179 364T141 265ZM225 655H283L368 532H301L255 602H252L205 532H139L225 655Z" />
<glyph unicode="&#xeb;" glyph-name="edieresis" horiz-adv-x="512" d="M464 198H144Q151 132 192 94T297 55Q359 55 423 93L449 44Q379 -12 283 -12Q173 -12 108 57Q48 121 48 225Q48 331 113 402Q172 466 258 466Q363 466 419 387Q464 324 464 228V198ZM141
265H376Q374 330 344 365T261 401Q211 401 179 364T141 265ZM125 594Q125 615 140 630T177 645Q197 645 212 630T228 594Q228 572 213 557T177 542Q154 542 140 556T125 594ZM287 594Q287 615 302 630T338 645Q359 645 374 630T390 594Q390 572 375 557T338 542Q316
542 302 557T287 594Z" />
<glyph unicode="&#xec;" glyph-name="igrave" horiz-adv-x="281" d="M184 454V0H98V454H184ZM105 532L12 655H102L162 532H105Z" />
<glyph unicode="&#xed;" glyph-name="iacute" horiz-adv-x="273" d="M263 655L170 532H113L173 655H263ZM184 454V0H98V454H184Z" />
<glyph unicode="&#xee;" glyph-name="icircumflex" horiz-adv-x="281" d="M184 454V0H98V454H184ZM114 655H172L257 532H190L144 602H141L94 532H28L114 655Z" />
<glyph unicode="&#xef;" glyph-name="idieresis" horiz-adv-x="281" d="M184 454V0H98V454H184ZM9 594Q9 615 24 630T61 645Q81 645 96 630T112 594Q112 572 97 557T61 542Q38 542 24 556T9 594ZM171 594Q171 615 186 630T222 645Q243 645 258 630T274 594Q274
572 259 557T222 542Q200 542 186 557T171 594Z" />
<glyph unicode="&#xf0;" glyph-name="eth" horiz-adv-x="503" d="M147 614L192 645Q261 633 320 595L424 648L468 605L369 555Q464 458 464 293Q464 156 408 74Q351 -12 245 -12Q146 -12 90 69Q48 129 48 204Q48 319 121 374Q171 412 240 412Q317 412 368 359Q358
471 304 521L187 462L143 505L256 563Q215 591 147 614ZM369 290Q329 344 257 344Q202 344 172 307T142 204Q142 59 240 59Q302 59 336 112T370 264Q370 277 369 290Z" />
<glyph unicode="&#xf1;" glyph-name="ntilde" horiz-adv-x="545" d="M158 409H163Q214 466 305 466Q472 466 472 270V0H386V265Q386 392 274 392Q243 392 211 377T164 341V0H78V454H150L158 409ZM408 635Q384 550 325 550Q300 550 265 570Q263 571 260 573Q258
574 256 575Q228 592 213 592Q176 592 160 548L127 570Q151 655 213 655Q239 655 285 629Q287 628 291 625Q315 611 325 611Q351 611 374 658L408 635Z" />
<glyph unicode="&#xf2;" glyph-name="ograve" horiz-adv-x="538" d="M270 -12Q167 -12 103 65Q48 131 48 226Q48 336 115 404Q175 466 269 466Q377 466 439 387Q490 321 490 226Q490 117 420 48Q358 -12 270 -12ZM268 56Q328 56 363 102T399 226Q399 307 361 355Q326
400 269 400Q211 400 175 352T139 226Q139 142 179 96Q214 56 268 56ZM245 532L152 655H242L302 532H245Z" />
<glyph unicode="&#xf3;" glyph-name="oacute" horiz-adv-x="538" d="M270 -12Q167 -12 103 65Q48 131 48 226Q48 336 115 404Q175 466 269 466Q377 466 439 387Q490 321 490 226Q490 117 420 48Q358 -12 270 -12ZM268 56Q328 56 363 102T399 226Q399 307 361 355Q326
400 269 400Q211 400 175 352T139 226Q139 142 179 96Q214 56 268 56ZM387 655L294 532H237L297 655H387Z" />
<glyph unicode="&#xf4;" glyph-name="ocircumflex" horiz-adv-x="538" d="M270 -12Q167 -12 103 65Q48 131 48 226Q48 336 115 404Q175 466 269 466Q377 466 439 387Q490 321 490 226Q490 117 420 48Q358 -12 270 -12ZM268 56Q328 56 363 102T399 226Q399 307
361 355Q326 400 269 400Q211 400 175 352T139 226Q139 142 179 96Q214 56 268 56ZM240 655H298L383 532H316L270 602H267L220 532H154L240 655Z" />
<glyph unicode="&#xf5;" glyph-name="otilde" horiz-adv-x="538" d="M270 -12Q167 -12 103 65Q48 131 48 226Q48 336 115 404Q175 466 269 466Q377 466 439 387Q490 321 490 226Q490 117 420 48Q358 -12 270 -12ZM268 56Q328 56 363 102T399 226Q399 307 361 355Q326
400 269 400Q211 400 175 352T139 226Q139 142 179 96Q214 56 268 56ZM409 635Q385 550 326 550Q301 550 266 570Q264 571 261 573Q259 574 257 575Q229 592 214 592Q177 592 161 548L128 570Q152 655 214 655Q240 655 286 629Q288 628 292 625Q316 611 326 611Q352
611 375 658L409 635Z" />
<glyph unicode="&#xf6;" glyph-name="odieresis" horiz-adv-x="538" d="M270 -12Q167 -12 103 65Q48 131 48 226Q48 336 115 404Q175 466 269 466Q377 466 439 387Q490 321 490 226Q490 117 420 48Q358 -12 270 -12ZM268 56Q328 56 363 102T399 226Q399 307 361
355Q326 400 269 400Q211 400 175 352T139 226Q139 142 179 96Q214 56 268 56ZM136 594Q136 615 151 630T188 645Q208 645 223 630T239 594Q239 572 224 557T188 542Q165 542 151 556T136 594ZM298 594Q298 615 313 630T349 645Q370 645 385 630T401 594Q401 572
386 557T349 542Q327 542 313 557T298 594Z" />
<glyph unicode="&#xf7;" glyph-name="divide" horiz-adv-x="406" d="M204 293Q155 293 155 342Q155 391 204 391Q251 391 251 342Q251 293 204 293ZM45 171V252H361V171H45ZM204 25Q155 25 155 75Q155 124 204 124Q251 124 251 75Q251 25 204 25Z" />
<glyph unicode="&#xf8;" glyph-name="oslash" horiz-adv-x="538" d="M196 0L183 -30H108L136 32Q48 101 48 226Q48 336 115 404Q175 466 269 466Q299 466 329 458L343 490H418L391 430Q490 364 490 226Q490 117 420 48Q358 -12 270 -12Q235 -12 196 0ZM225 63Q243
56 268 56Q328 56 363 102T399 226Q399 309 358 358L225 63ZM300 396Q280 400 269 400Q211 400 175 352T139 226Q139 152 170 107L300 396Z" />
<glyph unicode="&#xf9;" glyph-name="ugrave" horiz-adv-x="534" d="M370 454H456V0H390L383 52H377Q354 24 315 6T237 -12Q78 -12 78 182V454H164V201Q164 62 264 62Q293 62 324 77T370 113V454ZM239 532L146 655H236L296 532H239Z" />
<glyph unicode="&#xfa;" glyph-name="uacute" horiz-adv-x="534" d="M370 454H456V0H390L383 52H377Q354 24 315 6T237 -12Q78 -12 78 182V454H164V201Q164 62 264 62Q293 62 324 77T370 113V454ZM383 655L290 532H233L293 655H383Z" />
<glyph unicode="&#xfb;" glyph-name="ucircumflex" horiz-adv-x="534" d="M370 454H456V0H390L383 52H377Q354 24 315 6T237 -12Q78 -12 78 182V454H164V201Q164 62 264 62Q293 62 324 77T370 113V454ZM238 655H296L381 532H314L268 602H265L218 532H152L238 655Z" />
<glyph unicode="&#xfc;" glyph-name="udieresis" horiz-adv-x="534" d="M456 454V0H390L383 52H377Q354 24 315 6T237 -12Q78 -12 78 182V454H164V201Q164 62 264 62Q293 62 324 77T370 113V454H456ZM134 594Q134 615 149 630T186 645Q206 645 221 630T237 594Q237
572 222 557T186 542Q163 542 149 556T134 594ZM296 594Q296 615 311 630T347 645Q368 645 383 630T399 594Q399 572 384 557T347 542Q325 542 311 557T296 594Z" />
<glyph unicode="&#xfd;" glyph-name="yacute" horiz-adv-x="471" d="M456 454L261 -68Q214 -191 134 -191Q80 -191 22 -148L48 -104Q82 -124 107 -124Q153 -124 180 -58L203 0H185L15 454H104L233 94L366 454H456ZM350 650L257 527H200L260 650H350Z" />
<glyph unicode="&#xfe;" glyph-name="thorn" horiz-adv-x="549" d="M78 600L164 645V407Q220 466 293 466Q394 466 452 392Q501 330 501 236Q501 112 429 44Q371 -12 288 -12Q209 -12 164 36V-179H78V600ZM164 313V131Q171 100 203 77T272 54Q333 54 371 102T409
226Q409 313 369 359Q334 399 279 399Q242 399 207 373T164 313Z" />
<glyph unicode="&#xff;" glyph-name="ydieresis" horiz-adv-x="471" d="M456 454L261 -68Q214 -191 134 -191Q80 -191 22 -148L48 -104Q82 -124 107 -124Q153 -124 180 -58L203 0H185L15 454H104L233 94L366 454H456ZM103 594Q103 615 118 630T155 645Q175 645
190 630T206 594Q206 572 191 557T155 542Q132 542 118 556T103 594ZM265 594Q265 615 280 630T316 645Q337 645 352 630T368 594Q368 572 353 557T316 542Q294 542 280 557T265 594Z" />
<glyph unicode="&#x2013;" glyph-name="endash" horiz-adv-x="381" d="M70 152V233H311V152H70Z" />
<glyph unicode="&#x2014;" glyph-name="emdash" horiz-adv-x="622" d="M70 152V233H552V152H70Z" />
<glyph unicode="&#x2018;" glyph-name="quoteleft" horiz-adv-x="255" d="M138 538Q193 538 195 481Q195 453 178 435T132 416Q70 416 70 492V621L112 633L113 538H138Z" />
<glyph unicode="&#x2019;" glyph-name="quoteright" horiz-adv-x="255" d="M117 519Q62 519 60 576Q60 604 77 622T123 641Q185 641 185 565V436L143 424L142 519H117Z" />
<glyph unicode="&#x201a;" glyph-name="quotesinglbase" horiz-adv-x="255" d="M117 -4Q62 -4 60 53Q60 82 77 100T123 118Q185 118 185 42V-87L143 -99L142 -4H117Z" />
<glyph unicode="&#x201c;" glyph-name="quotedblleft" horiz-adv-x="410" d="M138 538Q193 538 195 481Q195 453 178 435T132 416Q70 416 70 492V621L112 633L113 538H138ZM293 538Q348 538 350 481Q350 453 333 435T287 416Q225 416 225 492V621L267 633L268 538H293Z" />
<glyph unicode="&#x201d;" glyph-name="quotedblright" horiz-adv-x="412" d="M117 519Q62 519 60 576Q60 604 77 622T123 641Q185 641 185 565V436L143 424L142 519H117ZM274 519Q219 519 217 576Q217 604 234 622T280 641Q342 641 342 565V436L300 424L299 519H274Z" />
<glyph unicode="&#x201e;" glyph-name="quotedblbase" horiz-adv-x="412" d="M117 -4Q62 -4 60 53Q60 82 77 100T123 118Q185 118 185 42V-87L143 -99L142 -4H117ZM274 -4Q219 -4 217 53Q217 82 234 100T280 118Q342 118 342 42V-87L300 -99L299 -4H274Z" />
<glyph unicode="&#x2022;" glyph-name="bullet" horiz-adv-x="313" d="M65 328Q65 366 91 393T156 420Q194 420 221 393T248 328Q248 290 221 264T156 237Q118 237 92 263T65 328Z" />
<glyph unicode="&#x2039;" glyph-name="guilsinglleft" horiz-adv-x="319" d="M279 12Q214 22 151 83T50 231Q87 318 150 379T279 451V374Q185 329 138 231Q185 134 279 89V12Z" />
<glyph unicode="&#x203a;" glyph-name="guilsinglright" horiz-adv-x="319" d="M40 12V89Q134 134 181 231Q134 329 40 374V451Q105 441 168 380T269 231Q232 144 169 83T40 12Z" />
</font>
</defs>
</svg>
