<?xml version="1.0" standalone="no"?>
<!DOCTYPE svg PUBLIC "-//W3C//DTD SVG 1.1//EN" "http://www.w3.org/Graphics/SVG/1.1/DTD/svg11.dtd">
<svg xmlns="http://www.w3.org/2000/svg">
<defs >
<font id="Trispace" horiz-adv-x="1241" ><font-face
    font-family="Trispace Thin ExtraLight"
    units-per-em="2000"
    panose-1="0 0 0 0 0 0 0 0 0 0"
    ascent="1830"
    descent="-430"
    alphabetic="0" />
<glyph unicode=" " horiz-adv-x="1000" />
<glyph unicode="!" horiz-adv-x="1000" d="M469 385L449 1400H589L568 385H469ZM448 180H587V0H448V180Z" />
<glyph unicode="&quot;" horiz-adv-x="1300" d="M682 974L656 1400H790L764 974H682ZM784 974L758 1400H892L866 974H784Z" />
<glyph unicode="#" horiz-adv-x="1800" d="M1059 0L1221 1400H1320L1158 0H1059ZM192 389L203 482H1436L1424 389H192ZM401 0L563 1400H662L500 0H401ZM258 913L269 1006H1502L1490 913H258Z" />
<glyph unicode="$" horiz-adv-x="1300" d="M612 0V244H707V0H612ZM612 1172V1400H707V1172H612ZM649 184Q550 184 468 209T328 274T244 358L337 427Q351 398 379 372T449 324T542 291T655 279Q716 279 770 290T866 327T932 393T956 492Q956 560 907 598T783 657T627
689Q565 698 503 716T389 767T304 849T272 969Q272 1025 295 1068T358 1141T449 1191T555 1220T665 1230Q758 1230 832 1204T957 1137T1028 1056L937 994Q923 1025 897 1050T834 1095T754 1125T661 1135Q623 1135 575 1129T483 1104T410 1053T381 968Q381 908 421
871T526 812T670 779Q720 771 775 759T881 728T975 679T1042 604T1067 496Q1067 431 1044 380T980 292T886 231T772 196T649 184Z" />
<glyph unicode="%" horiz-adv-x="1300" d="M120 0L1029 1400H1132L223 0H120ZM919 11Q863 11 812 36T729 119T697 274Q697 370 729 427T812 510T919 535Q975 535 1026 510T1109 428T1142 274Q1142 177 1110 119T1026 36T919 11ZM919 88Q958 88 988 105T1036 163T1054
274Q1054 344 1037 384T989 441T919 458Q881 458 850 441T802 384T784 274Q784 203 801 163T850 106T919 88ZM343 851Q288 851 237 876T154 959T121 1114Q121 1210 153 1267T237 1350T343 1375Q399 1375 450 1350T533 1268T566 1114Q566 1017 534 959T450 876T343
851ZM343 928Q382 928 412 945T461 1003T479 1114Q479 1184 461 1224T413 1281T343 1298Q305 1298 275 1281T226 1224T208 1114Q208 1043 226 1003T274 946T343 928Z" />
<glyph unicode="&amp;" horiz-adv-x="1700" d="M739 -16Q587 -16 481 34T318 172T261 372Q261 459 301 527T406 649T551 743T708 819Q825 870 888 915T975 1013T1000 1138Q1000 1195 983 1231T937 1287T872 1316T796 1325Q757 1325 722 1315T658 1284T614 1228T598
1146Q598 1100 615 1052T657 958T708 875T752 813L1358 0H1240L684 746Q653 788 621 835T562 933T518 1037T502 1145Q502 1213 525 1263T590 1346T685 1395T796 1412Q855 1412 909 1397T1006 1349T1073 1264T1098 1136Q1098 1050 1058 980T942 851T756 745Q685
714 617 679T492 599T403 499T370 371Q370 313 393 261T462 166T578 100T740 75Q829 75 903 96T1037 159T1137 262T1200 403T1222 583H1324Q1324 471 1296 378T1216 211T1092 88T931 11T739 -16Z" />
<glyph unicode="&apos;" horiz-adv-x="1000" d="M499 974L473 1400H607L581 974H499Z" />
<glyph unicode="(" horiz-adv-x="1300" d="M895 -433Q866 -399 823 -341T733 -196T646 5T580 265T554 588Q554 768 580 913T647 1173T735 1372T825 1514T898 1606L980 1545Q964 1527 927 1477T845 1346T759 1153T691 900T664 588Q664 420 689 280T755 29T840 -165T921
-299T977 -373L895 -433Z" />
<glyph unicode=")" horiz-adv-x="1300" d="M416 -433L334 -373Q353 -352 390 -300T471 -165T555 28T621 280T647 588Q647 758 620 899T552 1152T466 1345T384 1477T331 1545L413 1606Q442 1572 485 1515T576 1372T664 1173T731 914T757 588Q757 411 732 266T666
6T579 -195T489 -340T416 -433Z" />
<glyph unicode="*" horiz-adv-x="1300" d="M739 1047L578 1280L638 1327L813 1098L739 1047ZM457 1047L383 1098L559 1327L618 1280L457 1047ZM578 1280L308 1362L338 1449L598 1353L578 1280ZM598 1269Q578 1269 565 1282T551 1315Q551 1332 564 1345T598 1359Q618
1359 630 1346T643 1315Q643 1296 631 1283T598 1269ZM559 1327L553 1600H645L638 1327H559ZM618 1280L598 1353L857 1449L887 1362L618 1280Z" />
<glyph unicode="+" horiz-adv-x="1300" d="M557 233V981H655V233H557ZM231 559V657H979V559H231Z" />
<glyph unicode="," horiz-adv-x="1000" d="M441 -209L390 -136Q410 -128 432 -113T469 -70T484 5L574 0Q574 -61 553 -103T500 -172T441 -209ZM418 0V180H574V0H418Z" />
<glyph unicode="-" horiz-adv-x="1300" d="M364 559V657H935V559H364Z" />
<glyph unicode="." horiz-adv-x="1000" d="M407 180H547V0H407V180Z" />
<glyph unicode="/" horiz-adv-x="791" d="M105 -284L603 1600H703L205 -284H105Z" />
<glyph unicode="0" horiz-adv-x="1300" d="M652 -22Q568 -22 489 15T348 135T250 356T213 696Q213 897 249 1034T348 1255T489 1375T652 1412Q729 1412 806 1376T947 1256T1050 1035T1088 696Q1088 494 1050 356T948 135T806 15T652 -22ZM652 72Q717 72 775 108T879
220T950 414T976 696Q976 859 951 977T880 1170T776 1282T652 1318Q584 1318 525 1282T421 1171T351 977T325 696Q325 533 350 415T420 220T524 108T652 72Z" />
<glyph unicode="1" horiz-adv-x="1300" d="M274 0V93H610V1291L277 1208V1312L626 1400H720V93H1057V0H274Z" />
<glyph unicode="2" horiz-adv-x="1300" d="M191 0V93Q218 112 269 153T385 253T520 381T656 530T776 692T861 857T893 1016Q893 1100 870 1157T807 1249T716 1299T607 1315Q532 1315 470 1287T363 1206T300 1078L201 1131Q230 1225 291 1287T434 1380T610 1412Q692
1412 764 1391T890 1322T975 1198T1006 1015Q1006 920 964 819T852 618T704 429T549 268T420 150T346 93H1011V0H191Z" />
<glyph unicode="3" horiz-adv-x="1300" d="M638 -22Q523 -22 434 12T285 105T198 238L303 297Q320 235 364 185T477 105T639 75Q730 75 807 115T930 236T977 438Q977 529 952 592T885 694T791 751T683 769Q655 769 624 763T562 748T504 726L430 799L913 1307H267V1400H1051V1307L585
823Q610 837 651 845T732 854Q794 854 857 830T972 756T1057 627T1089 439Q1089 325 1054 239T956 95T812 8T638 -22Z" />
<glyph unicode="4" horiz-adv-x="1300" d="M751 0V339H173V433L676 1400H860V433H1090V339H860V0H751ZM286 433H751V1311H745L286 433Z" />
<glyph unicode="5" horiz-adv-x="1300" d="M599 -22Q482 -22 398 15T260 113T183 239L285 293Q300 242 338 192T441 109T604 75Q697 75 772 120T891 254T935 471Q935 589 890 669T774 789T627 829Q556 829 493 806T382 735T312 615L256 656Q269 719 305 769T394
855T511 908T643 927Q742 927 834 878T986 729T1046 472Q1046 356 1013 265T919 109T777 12T599 -22ZM312 615L212 645L298 1400H983V1307H393L312 615Z" />
<glyph unicode="6" horiz-adv-x="1300" d="M611 -22Q514 -22 431 18T288 141T194 352T160 656Q160 824 198 962T307 1202T474 1358T688 1413Q774 1413 832 1389T923 1333T967 1283L896 1207Q885 1226 860 1251T790 1295T679 1315Q596 1315 523 1270T394 1137T305
927T273 650Q273 499 298 390T368 211T476 108T612 75Q703 75 776 121T892 257T935 473Q935 598 894 677T785 794T638 832Q582 832 523 809T413 740T326 626T281 467L207 520Q222 620 265 696T372 824T507 901T652 928Q765 928 853 877T993 725T1044 475Q1044 362
1014 270T926 113T790 13T611 -22Z" />
<glyph unicode="7" horiz-adv-x="1300" d="M576 0Q576 138 596 291T653 596T738 887T844 1133T964 1307H259V1400H1079V1307Q1013 1232 955 1122T848 878T765 596T711 297T692 0H576Z" />
<glyph unicode="8" horiz-adv-x="1300" d="M646 -22Q530 -22 428 20T263 150T199 380Q199 488 240 564T348 687T494 757T646 779Q716 779 793 757T938 688T1048 564T1091 380Q1091 239 1028 151T863 20T646 -22ZM646 75Q731 75 807 106T930 205T978 381Q978 490
931 558T807 658T646 690Q560 690 484 657T360 555T311 381Q311 273 359 206T484 107T646 75ZM646 695Q579 695 509 717T381 784T286 898T250 1062Q250 1150 283 1216T373 1326T500 1392T646 1414Q717 1414 787 1392T914 1326T1006 1216T1040 1062Q1040 968 1005
899T911 784T783 717T646 695ZM646 784Q777 784 853 859T930 1059Q930 1128 904 1177T835 1258T743 1303T646 1317Q595 1317 545 1303T452 1258T385 1178T360 1059Q360 935 441 860T646 784Z" />
<glyph unicode="9" horiz-adv-x="1300" d="M566 -23Q480 -23 422 1T331 57T287 107L358 183Q369 165 394 140T464 95T575 75Q658 75 731 120T860 253T949 463T981 740Q981 891 956 999T886 1178T778 1282T642 1315Q551 1315 478 1269T362 1134T319 917Q319 792
360 713T469 596T616 558Q673 558 731 581T841 651T928 765T974 924L1047 870Q1032 770 989 694T882 566T747 489T602 462Q490 462 401 513T261 666T210 915Q210 1028 240 1120T328 1277T464 1377T643 1412Q740 1412 823 1372T966 1249T1060 1038T1094 734Q1094
566 1056 428T947 188T780 32T566 -23Z" />
<glyph unicode=":" horiz-adv-x="1000" d="M384 1000H524V820H384V1000ZM640 180H780V0H640V180Z" />
<glyph unicode=";" horiz-adv-x="1000" d="M398 1000H538V820H398V1000ZM655 -209L604 -136Q624 -128 646 -113T683 -70T698 5L788 0Q788 -61 767 -103T714 -172T655 -209ZM632 0V180H788V0H632Z" />
<glyph unicode="&lt;" horiz-adv-x="1300" d="M959 1076L1017 996L349 502V556L1017 62L959 -18L293 471V587L959 1076Z" />
<glyph unicode="=" horiz-adv-x="1300" d="M223 743V841H971V743H223ZM223 375V473H971V375H223Z" />
<glyph unicode="&gt;" horiz-adv-x="1300" d="M241 -18L184 62L851 556V502L184 996L241 1076L907 587V471L241 -18Z" />
<glyph unicode="?" horiz-adv-x="1300" d="M519 357V420Q519 493 538 551T589 659T659 750T736 830Q777 870 811 909T866 991T888 1081Q888 1149 862 1195T793 1267T701 1305T603 1317Q547 1317 494 1302T395 1259T316 1193T265 1108L168 1162Q192 1229 256 1286T410
1377T601 1412Q679 1412 750 1395T878 1340T967 1238T1000 1083Q1000 1020 975 970T911 875T825 786Q775 738 728 685T651 566T621 417V357H519ZM500 180H640V0H500V180Z" />
<glyph unicode="@" horiz-adv-x="1700" d="M743 -18Q650 -18 562 3T399 70T266 188T176 361T143 595Q143 743 182 869T294 1096T468 1267T695 1375T965 1412Q1087 1412 1194 1377T1383 1269T1511 1083T1558 815Q1558 714 1532 617T1457 442T1338 318T1178 271Q1125
271 1085 289T1022 345T998 436Q989 407 962 375T891 319T789 295Q738 295 694 312T617 367T566 466T548 612Q548 715 570 803T639 958T754 1061T917 1098Q964 1098 1003 1092T1073 1076T1119 1057Q1110 974 1100 881T1082 705T1069 562T1063 486Q1063 441 1073
410T1108 362T1175 346Q1244 346 1296 388T1385 499T1440 648T1459 807Q1459 924 1427 1018T1331 1181T1174 1285T958 1321Q832 1321 723 1288T526 1192T375 1043T279 844T245 604Q245 476 279 377T380 211T545 108T769 72Q889 72 951 97T1034 137L1079 56Q1064
45 1022 27T911 -4T743 -18ZM807 383Q862 383 899 412T957 492T987 602Q988 612 992 654T1003 757T1016 881T1026 996Q1018 1000 986 1005T906 1011Q832 1011 782 978T702 889T659 762T645 616Q645 538 659 491T698 421T751 391T807 383Z" />
<glyph unicode="A" horiz-adv-x="1300" d="M1155 0H1036L926 390H378L268 0H149L550 1400H754L1155 0ZM637 1307L400 483H904L667 1307H637Z" />
<glyph unicode="B" horiz-adv-x="1300" d="M261 0V1400H686Q736 1400 788 1392T886 1363T969 1303T1027 1204T1049 1058Q1049 960 1013 891T928 782T844 733Q877 729 921 709T1009 648T1080 544T1109 391Q1109 269 1067 181T942 47T741 0H261ZM371 93H724Q805
93 866 126T962 226T997 395Q997 500 953 561T845 649T724 675H371V93ZM371 769H685Q745 769 802 802T897 898T935 1049Q935 1129 916 1178T861 1256T777 1296T672 1307H371V769Z" />
<glyph unicode="C" horiz-adv-x="1300" d="M705 -22Q619 -22 538 4T385 86T261 227T177 429T147 696Q147 846 178 962T263 1164T389 1304T543 1385T712 1412Q792 1412 858 1389T978 1326T1070 1235T1134 1125L1033 1075Q1015 1120 987 1163T919 1240T828 1295T711
1316Q630 1316 551 1281T406 1170T302 978T263 696Q263 532 301 414T404 221T546 110T704 74Q770 74 822 95T915 150T984 226T1033 307L1134 254Q1110 202 1071 153T978 64T856 1T705 -22Z" />
<glyph unicode="D" horiz-adv-x="1300" d="M243 0V1400H554Q623 1400 691 1388T824 1345T944 1263T1041 1134T1106 949T1129 700Q1129 558 1106 451T1041 267T944 138T825 56T692 13T554 0H243ZM353 93H546Q636 93 719 120T870 215T977 401T1016 700Q1016 881
977 999T871 1184T720 1279T546 1307H353V93Z" />
<glyph unicode="E" horiz-adv-x="1300" d="M263 0V1400H1087V1307H373V735H1001V641H373V93H1087V0H263Z" />
<glyph unicode="F" horiz-adv-x="1300" d="M301 0V1400H1088V1307H411V677H997V584H411V0H301Z" />
<glyph unicode="G" horiz-adv-x="1300" d="M701 -22Q628 -22 551 0T401 74T271 208T180 412T146 696Q146 856 178 975T267 1178T395 1313T545 1388T699 1412Q789 1412 862 1390T992 1331T1086 1246T1139 1147L1033 1096Q1020 1139 993 1178T924 1249T826 1298T698
1316Q635 1316 572 1294T453 1224T353 1104T284 929T259 696Q259 529 299 411T404 218T548 109T702 74Q776 74 844 103T966 196T1051 363T1082 612H694V707H1190V628Q1190 483 1163 375T1089 191T979 68T846 0T701 -22Z" />
<glyph unicode="H" horiz-adv-x="1300" d="M213 0V1400H323V775H972V1400H1082V0H972V681H323V0H213Z" />
<glyph unicode="I" horiz-adv-x="1300" d="M299 0V93H594V1307H299V1400H1001V1307H704V93H1001V0H299Z" />
<glyph unicode="J" horiz-adv-x="1300" d="M597 -22Q507 -22 432 9T301 108T215 287T185 554H295Q295 390 329 284T431 126T597 75Q697 75 764 126T864 283T897 554V1307H329V1400H1007V546Q1007 392 978 284T894 108T765 9T597 -22Z" />
<glyph unicode="K" horiz-adv-x="1300" d="M243 0V1400H353V765H463L905 1400H1025L531 688V750L1057 0H935L461 671H353V0H243Z" />
<glyph unicode="L" horiz-adv-x="1000" d="M175 0V1400H285V93H867V0H175Z" />
<glyph unicode="M" horiz-adv-x="1700" d="M821 98L868 281L1218 1400H1291L1283 1288L906 98H821ZM164 0L330 1400H434L278 0H164ZM789 98L413 1288L409 1400H478L828 281L874 98H789ZM1418 0L1262 1400H1366L1533 0H1418Z" />
<glyph unicode="N" horiz-adv-x="1300" d="M193 0V1400H354L997 109H984V1400H1094V0H944L297 1287H303V0H193Z" />
<glyph unicode="O" horiz-adv-x="1300" d="M649 -22Q566 -22 487 4T339 84T219 224T138 426T108 696Q108 848 137 965T218 1167T338 1306T486 1386T649 1412Q733 1412 811 1386T958 1306T1078 1167T1159 965T1189 696Q1189 543 1160 426T1079 224T959 85T812 4T649
-22ZM649 74Q728 74 803 109T940 220T1038 413T1075 696Q1075 860 1039 977T941 1170T804 1280T649 1316Q570 1316 494 1281T357 1170T259 978T222 696Q222 531 258 414T356 221T494 110T649 74Z" />
<glyph unicode="P" horiz-adv-x="1300" d="M279 0V1400H621Q672 1400 734 1391T857 1355T968 1279T1049 1149T1079 950Q1079 831 1049 750T969 617T857 536T734 497T621 486H390V0H279ZM390 579H613Q661 579 721 590T837 638T930 749T967 950Q967 1077 931 1149T838
1255T721 1298T613 1307H390V579Z" />
<glyph unicode="Q" horiz-adv-x="1300" d="M601 -290V0H699V-227L669 -197H1084V-290H601ZM649 -22Q566 -22 487 4T339 84T219 224T138 426T108 696Q108 848 137 965T218 1167T338 1306T486 1386T649 1412Q733 1412 811 1386T958 1306T1078 1167T1159 965T1189
696Q1189 543 1160 426T1079 224T959 85T812 4T649 -22ZM649 74Q728 74 803 109T940 220T1038 413T1075 696Q1075 860 1039 977T941 1170T804 1280T649 1316Q570 1316 494 1281T357 1170T259 978T222 696Q222 531 258 414T356 221T494 110T649 74Z" />
<glyph unicode="R" horiz-adv-x="1300" d="M270 0V1400H729Q778 1400 829 1390T927 1356T1011 1290T1069 1187T1091 1038Q1091 956 1070 894T1011 787T928 715T833 674T738 661H380V0H270ZM998 0L711 697L822 709L1117 0H998ZM380 753H717Q782 753 842 781T941
871T980 1037Q980 1144 939 1202T836 1284T709 1307H380V753Z" />
<glyph unicode="S" horiz-adv-x="1300" d="M659 -22Q545 -22 448 8T280 98T172 243L281 294Q310 224 366 175T497 100T663 75Q767 75 846 111T969 213T1013 366Q1013 434 979 486T887 576T761 638T625 677Q533 698 459 730T331 810T249 921T220 1071Q220 1138
244 1192T312 1288T413 1356T536 1398T672 1412Q775 1412 863 1382T1015 1299T1103 1177L997 1126Q973 1189 926 1231T814 1294T669 1315Q606 1315 547 1300T440 1254T364 1178T335 1074Q335 987 378 929T496 835T664 778Q733 762 800 740T927 686T1031 611T1103
509T1129 375Q1129 298 1105 235T1038 124T937 43T808 -5T659 -22Z" />
<glyph unicode="T" horiz-adv-x="1300" d="M594 0V1307H159V1400H1139V1307H704V0H594Z" />
<glyph unicode="U" horiz-adv-x="1300" d="M652 -22Q556 -22 472 11T324 114T224 295T188 560V1400H298V566Q298 401 341 292T464 129T652 75Q761 75 840 129T961 292T1004 566V1400H1114V560Q1114 406 1079 295T980 114T833 11T652 -22Z" />
<glyph unicode="V" horiz-adv-x="1300" d="M536 0L150 1400H267L626 93H631L990 1400H1108L721 0H536Z" />
<glyph unicode="W" horiz-adv-x="1700" d="M1159 0L853 1243L832 1386H910L1230 97L1235 0H1159ZM394 0L121 1400H237L475 100L487 0H394ZM463 0L469 97L790 1386H868L849 1243L541 0H463ZM1211 0L1222 100L1463 1400H1579L1306 0H1211Z" />
<glyph unicode="X" horiz-adv-x="1300" d="M174 0L520 689L174 1400H301L618 739H658L991 1400H1118L756 689L1118 0H991L657 645H618L301 0H174Z" />
<glyph unicode="Y" horiz-adv-x="1300" d="M586 0V554L165 1400H284L641 662L996 1400H1115L696 554V0H586Z" />
<glyph unicode="Z" horiz-adv-x="1300" d="M225 0V93L943 1307H241V1400H1061V1307L345 93H1076V0H225Z" />
<glyph unicode="[" horiz-adv-x="1300" d="M528 -404V1604H967V1507H638V-307H967V-404H528Z" />
<glyph unicode="\" horiz-adv-x="792" d="M603 -284L105 1600H206L704 -284H603Z" />
<glyph unicode="]" horiz-adv-x="1300" d="M787 -404H348V-307H677V1507H348V1604H787V-404Z" />
<glyph unicode="^" horiz-adv-x="1300" d="M378 1120L572 1600H720L914 1120H815L659 1513H633L477 1120H378Z" />
<glyph unicode="_" horiz-adv-x="1300" d="M-3 -247V-149H1303V-247H-3Z" />
<glyph unicode="`" horiz-adv-x="1300" d="M671 1135L367 1404H509L787 1135H671Z" />
<glyph unicode="a" horiz-adv-x="1300" d="M583 -22Q496 -22 424 -1T301 62T222 163T194 300Q194 365 217 415T280 503T372 564T482 600T599 612Q677 612 742 595T854 552T922 502V687Q922 757 895 804T824 878T726 917T616 929Q564 929 516 918T424 888T349 848T295
808L238 895Q272 925 328 955T461 1004T627 1024Q683 1024 740 1014T849 980T943 920T1007 829T1031 704V93H1193V0H934L928 131Q908 98 862 63T746 3T583 -22ZM600 71Q694 71 758 99T863 167T922 237V401Q899 431 850 460T738 508T611 527Q535 527 465 504T350
431T305 303Q305 225 341 174T443 97T600 71Z" />
<glyph unicode="b" horiz-adv-x="1300" d="M271 0V1500H381V236L374 0H271ZM708 -22Q616 -22 544 15T422 114T347 250T321 398L377 415Q384 353 407 293T470 183T562 105T683 75Q767 75 842 119T965 258T1013 502Q1013 654 967 746T848 882T690 925Q623 925 570
898T476 825T411 723T376 609L321 625Q321 695 349 765T428 893T553 986T718 1022Q817 1022 910 968T1063 799T1123 502Q1123 366 1087 267T990 103T856 9T708 -22Z" />
<glyph unicode="c" horiz-adv-x="1300" d="M704 -22Q643 -22 578 -3T452 55T343 157T267 304T238 502Q238 615 266 701T343 848T451 948T577 1005T704 1024Q783 1024 846 1003T957 947T1038 871T1084 789L982 741Q968 784 933 827T840 900T706 929Q648 929 587
905T472 828T387 695T355 502Q355 391 387 311T472 177T586 99T706 73Q784 73 841 102T933 175T980 259L1084 209Q1071 173 1040 133T960 58T847 0T704 -22Z" />
<glyph unicode="d" horiz-adv-x="1300" d="M547 -22Q472 -22 399 8T265 103T169 266T132 502Q132 684 192 799T345 968T537 1022Q628 1022 701 987T826 893T905 765T933 625L879 609Q869 667 844 723T779 825T686 898T564 925Q480 925 407 882T288 747T242 502Q242
353 289 259T412 120T572 75Q639 75 692 104T784 183T847 292T878 415L934 398Q934 325 908 251T832 115T711 16T547 -22ZM984 1500V45L934 94H1156V0H881L873 214V1500H984Z" />
<glyph unicode="e" horiz-adv-x="1300" d="M651 -22Q570 -22 487 7T333 99T221 262T178 502Q178 642 221 742T336 904T491 995T655 1024Q743 1024 825 995T971 908T1074 765T1112 565Q1112 550 1112 530T1108 494H263V579H991Q991 587 991 590T991 601Q991 708
943 781T818 892T655 929Q594 929 531 906T414 832T327 700T293 502Q293 358 347 263T485 121T655 73Q742 73 807 99T914 166T971 249L1078 193Q1060 155 1023 117T931 48T806 -3T651 -22Z" />
<glyph unicode="f" horiz-adv-x="1000" d="M378 0V1125Q378 1241 409 1317T493 1437T607 1499T731 1517Q801 1517 845 1505T915 1478V1382Q890 1397 851 1410T742 1424Q699 1424 655 1413T572 1369T511 1275T488 1109V0H378ZM94 907V1000H904V907H94Z" />
<glyph unicode="g" horiz-adv-x="1300" d="M660 -421Q559 -421 485 -393T362 -317T290 -212T266 -99H376Q376 -125 390 -163T436 -238T524 -301T661 -326Q770 -326 839 -274T941 -135T975 55V780L978 1000H1085V76Q1085 -15 1067 -92T1013 -231T927 -334T808 -399T660
-421ZM651 -22Q576 -22 503 8T369 103T273 266T236 502Q236 684 296 799T449 968T641 1022Q732 1022 805 987T930 893T1009 765T1037 625L983 609Q973 667 948 723T883 825T790 898T668 925Q584 925 511 882T392 747T346 502Q346 353 393 259T516 120T676 75Q743
75 796 104T888 183T951 292T982 415L1038 398Q1038 325 1012 251T936 115T815 16T651 -22Z" />
<glyph unicode="h" horiz-adv-x="1300" d="M271 0V1500H381V0H271ZM939 0V571Q939 698 912 776T830 890T689 926Q629 926 575 902T477 834T406 731T376 604L326 610Q326 690 352 764T427 897T549 990T716 1024Q795 1024 856 1000T961 923T1026 788T1049 588V0H939Z" />
<glyph unicode="i" horiz-adv-x="1000" d="M105 0V93H460V907H154V1000H570V93H912V0H105ZM452 1406H575V1226H452V1406Z" />
<glyph unicode="j" horiz-adv-x="1000" d="M115 -400V-303H187Q267 -303 331 -279T442 -208T512 -90T537 77V907H147V1000H647V59Q647 -55 613 -141T518 -284T376 -371T202 -400H115ZM528 1406H651V1226H528V1406Z" />
<glyph unicode="k" horiz-adv-x="1300" d="M331 0V1500H441V566H575V473H441V0H331ZM955 0L483 519L589 554L1096 0H955ZM589 498L489 540L955 1000H1095L589 498Z" />
<glyph unicode="l" horiz-adv-x="1000" d="M91 0V93H430V1407H163V1500H540V93H892V0H91Z" />
<glyph unicode="m" horiz-adv-x="1700" d="M1439 0V604Q1439 764 1382 845T1197 926Q1116 926 1046 882T932 765T884 607L820 612Q821 687 850 760T934 893T1062 988T1226 1024Q1332 1024 1404 983T1512 854T1549 625V0H1439ZM114 0V1000H218L224 783V0H114ZM775
0V604Q775 764 718 845T533 926Q452 926 383 882T271 765T224 607L160 612Q161 687 190 760T274 893T402 988T562 1024Q721 1024 803 936T885 662V0H775Z" />
<glyph unicode="n" horiz-adv-x="1300" d="M264 0V1000H367L375 801V0H264ZM934 0V571Q934 698 907 776T825 890T684 926Q624 926 570 902T472 834T401 731T371 604L321 610Q321 690 347 764T422 897T544 990T711 1024Q790 1024 851 1000T956 923T1021 788T1044
588V0H934Z" />
<glyph unicode="o" horiz-adv-x="1300" d="M656 -22Q593 -22 528 -5T401 51T292 150T215 299T187 502Q187 617 215 704T291 852T401 951T527 1006T656 1024Q718 1024 783 1007T910 951T1020 852T1096 704T1125 502Q1125 386 1097 299T1020 151T911 51T784 -4T656
-22ZM656 73Q711 73 772 93T888 162T976 294T1011 502Q1011 625 977 707T888 838T773 908T656 929Q601 929 540 908T424 838T335 707T301 502Q301 378 335 295T423 163T539 94T656 73Z" />
<glyph unicode="p" horiz-adv-x="1300" d="M236 -400V1000H339L346 849V-400H236ZM673 -22Q582 -22 510 15T388 114T312 250T286 398L342 415Q349 353 373 293T435 183T527 105T648 75Q732 75 807 119T930 258T978 502Q978 654 933 746T814 882T656 925Q588 925
535 898T441 825T376 723T341 609L287 625Q287 695 314 765T394 893T519 986T683 1022Q782 1022 875 968T1028 799T1088 502Q1088 366 1052 267T955 103T822 9T673 -22Z" />
<glyph unicode="q" horiz-adv-x="1300" d="M1018 -400H908V849L915 1000H1018V-400ZM581 -22Q506 -22 433 8T299 103T203 266T166 502Q166 684 226 799T379 968T571 1022Q662 1022 735 987T860 893T939 765T967 625L913 609Q903 667 878 723T813 825T720 898T598
925Q514 925 441 882T322 747T276 502Q276 353 323 259T446 120T606 75Q673 75 726 104T818 183T881 292T912 415L968 398Q968 325 942 251T866 115T745 16T581 -22Z" />
<glyph unicode="r" horiz-adv-x="1300" d="M265 0V93H491V907H265V1000H589L601 746V93H856V0H265ZM599 585L537 601Q540 663 564 724T629 839T725 935T847 1000T986 1024Q1045 1024 1079 1014T1126 995L1095 893Q1084 901 1052 911T969 921Q905 921 843 892T729
813T643 704T599 585Z" />
<glyph unicode="s" horiz-adv-x="1300" d="M645 -22Q546 -22 464 3T324 68T240 152L332 221Q346 192 374 166T444 118T538 85T650 73Q712 73 766 84T862 121T927 187T951 286Q951 354 903 392T779 451T622 483Q561 492 499 510T385 561T300 643T268 763Q268 819
291 862T354 935T444 985T551 1014T661 1024Q754 1024 828 998T953 931T1024 850L933 788Q919 819 892 844T829 889T749 919T657 929Q619 929 571 923T478 898T406 847T377 762Q377 702 416 665T522 606T666 573Q716 565 770 553T877 522T971 473T1037 398T1062
290Q1062 225 1039 174T975 86T881 25T768 -10T645 -22Z" />
<glyph unicode="t" horiz-adv-x="1300" d="M429 271V1317H541V274Q541 198 564 153T628 88T719 67Q770 67 813 87T883 154T910 277H1010Q1010 198 986 142T919 51T823 -1T710 -18Q649 -18 598 -2T509 50T450 141T429 271ZM160 907V1000H1014V907H160Z" />
<glyph unicode="u" horiz-adv-x="1300" d="M565 -24Q487 -24 425 0T320 77T255 212T232 412V1000H342V429Q342 302 369 224T451 110T592 74Q652 74 706 98T804 166T875 269T905 396L955 390Q955 310 929 236T854 103T732 10T565 -24ZM911 0L898 192V1000H1008V58L975
93H1130V0H911Z" />
<glyph unicode="v" horiz-adv-x="1300" d="M550 0L179 1000H298L633 97H655L990 1000H1109L738 0H550Z" />
<glyph unicode="w" horiz-adv-x="1700" d="M1143 0L822 1000H916L1237 0H1143ZM402 0L190 1000H303L504 0H402ZM465 0L785 1000H879L559 0H465ZM1198 0L1398 1000H1511L1300 0H1198Z" />
<glyph unicode="x" horiz-adv-x="1300" d="M174 0L556 501L174 1000H305L650 548H643L988 1000H1119L737 501L1119 0H988L643 455H650L305 0H174Z" />
<glyph unicode="y" horiz-adv-x="1300" d="M448 -400L620 33L639 -9H589L197 1000H315L667 79H640L985 1000H1101L563 -400H448Z" />
<glyph unicode="z" horiz-adv-x="1300" d="M237 0V93L873 907H253V1000H1000V907L368 93H1005V0H237Z" />
<glyph unicode="{" horiz-adv-x="1300" d="M358 597V650H365Q436 650 475 683T529 776T544 919V1254Q544 1343 567 1410T634 1524T745 1594T899 1618H941V1524H918Q837 1524 777 1496T684 1402T650 1226V855Q650 767 626 715T567 638T499 605T446 597H358ZM899
-417Q812 -417 746 -394T635 -324T567 -209T544 -53V281Q544 363 529 424T475 518T365 551H358V603H446Q465 603 498 596T567 563T626 486T650 345V-26Q650 -136 683 -201T777 -295T918 -324H941V-417H899Z" />
<glyph unicode="|" horiz-adv-x="1300" d="M601 -360V1600H697V-360H601Z" />
<glyph unicode="}" horiz-adv-x="1300" d="M944 597H857Q838 597 805 604T736 637T677 715T653 855V1226Q653 1337 620 1402T526 1495T385 1524H361V1618H403Q490 1618 556 1595T668 1525T736 1411T759 1254V919Q759 837 774 777T827 683T938 650H944V597ZM403
-417H361V-324H385Q466 -324 526 -296T619 -202T653 -26V345Q653 434 676 485T735 562T804 595T857 603H944V551H938Q866 551 828 518T774 424T759 281V-53Q759 -141 736 -209T668 -323T557 -393T403 -417Z" />
<glyph unicode="~" horiz-adv-x="1300" d="M717 665Q667 665 633 684T572 727T518 770T453 789Q399 789 359 759T301 701L226 763Q231 772 250 791T298 831T366 867T453 882Q504 882 538 863T598 819T652 775T717 756Q771 756 810 786T865 846L940 782Q935 773
918 754T871 715T803 680T717 665Z" />
<glyph unicode="&#xa0;" horiz-adv-x="1000" />
<glyph unicode="&#xa1;" horiz-adv-x="1000" d="M535 615L556 -400H416L436 615H535ZM557 820H417V1000H557V820Z" />
<glyph unicode="&#xa2;" horiz-adv-x="1300" d="M657 170Q565 170 481 198T331 289T227 451T189 694Q189 839 227 939T331 1100T481 1188T657 1216Q778 1216 877 1163T1046 988L944 935Q917 984 880 1026T787 1094T649 1119Q580 1119 518 1095T408 1019T333 887T306
694Q306 583 333 503T408 370T518 293T649 267Q727 267 786 290T885 350T948 431L1051 377Q1007 306 946 260T811 192T657 170ZM595 0V224H694V0H595ZM595 1160V1400H694V1160H595Z" />
<glyph unicode="&#xa3;" horiz-adv-x="1300" d="M121 649V743H877V649H121ZM306 51L225 79Q256 103 285 145T337 240T373 354T387 476Q387 553 371 620T332 751Q313 813 298 876T283 1010Q283 1101 312 1175T397 1302T529 1383T698 1412Q798 1412 867 1385T982
1314T1057 1224L968 1170Q947 1204 914 1237T828 1293T698 1316Q647 1316 594 1302T496 1252T425 1157T398 1004Q398 945 411 887T443 770Q463 704 479 635T495 486Q495 389 472 303T407 151T306 51ZM269 -17L225 79Q227 79 235 78T257 74T283 69T309 63Q337 79
371 90T448 109T549 116Q600 116 639 108T713 90Q744 80 775 73T845 66Q896 66 941 74T1010 93L1039 -3Q1014 -11 961 -18T845 -26Q795 -26 752 -18T666 2Q629 12 593 18T517 25Q466 25 413 16T320 -3T269 -17Z" />
<glyph unicode="&#xa4;" horiz-adv-x="1300" d="M664 338Q597 338 529 358T405 423T313 546T278 740Q278 857 313 934T404 1056T529 1120T664 1140Q729 1140 796 1121T921 1056T1012 934T1047 740Q1047 624 1013 547T921 424T797 358T664 338ZM263 272L197 341L359
499L427 434L263 272ZM1067 273L904 435L971 500L1133 342L1067 273ZM664 437Q701 437 748 447T839 487T912 578T941 740Q941 841 913 901T840 991T748 1031T664 1041Q626 1041 578 1031T486 991T413 901T384 740Q384 639 413 578T486 487T578 447T664 437ZM359
984L197 1142L263 1211L427 1049L359 984ZM971 983L904 1049L1067 1211L1133 1141L971 983Z" />
<glyph unicode="&#xa5;" horiz-adv-x="1300" d="M294 547V635H988V547H294ZM294 279V367H988V279H294ZM586 0V554L165 1400H284L641 662L996 1400H1115L696 554V0H586Z" />
<glyph unicode="&#xa6;" horiz-adv-x="1300" d="M545 906V1600H645V906H545ZM545 -360V326H645V-360H545Z" />
<glyph unicode="&#xa7;" horiz-adv-x="1300" d="M574 -218Q463 -218 376 -193T232 -124T153 -28L248 20Q267 -24 311 -57T422 -108T574 -127Q638 -127 696 -116T798 -82T868 -18T894 83Q894 122 875 155T822 216T749 263T665 299T583 321Q534 332 483 346T383
383T297 439T237 518T214 627Q214 690 247 735T333 811T451 860T578 887L673 817Q666 819 660 819T643 820Q612 820 570 814T484 794T403 759T343 706T320 632Q320 582 346 544T413 479T502 435T598 408Q635 401 687 386T793 347T894 286T970 200T1000 85Q1000
19 978 -31T916 -117T823 -175T707 -207T574 -218ZM699 309L592 357Q629 361 671 372T755 401T830 444T884 502T904 576Q904 617 884 651T828 712T751 758T665 790T582 811Q545 818 500 833T411 874T331 935T273 1018T251 1126Q251 1186 271 1232T329 1312T414
1368T517 1401T630 1412Q732 1412 811 1387T943 1320T1015 1224L917 1179Q897 1227 858 1258T762 1305T628 1321Q578 1321 530 1312T442 1281T380 1222T356 1125Q356 1074 378 1036T437 971T516 928T598 903Q635 895 688 880T796 841T900 781T978 695T1008 580Q1008
520 983 477T919 403T837 353T757 324T699 309Z" />
<glyph unicode="&#xa8;" horiz-adv-x="1300" d="M359 1333H482V1153H359V1333ZM784 1333H906V1153H784V1333Z" />
<glyph unicode="&#xa9;" horiz-adv-x="1300" d="M637 115Q571 115 499 134T358 194T234 302T145 468T112 698Q112 829 145 926T233 1091T357 1200T498 1260T637 1279Q703 1279 775 1260T915 1200T1039 1092T1126 927T1159 698Q1159 566 1127 468T1039 303T916
194T775 134T637 115ZM658 388Q584 388 517 418T408 515T365 696Q365 810 407 877T517 974T658 1004Q724 1004 769 982T841 929T878 873L808 839Q794 878 751 905T654 933Q591 933 545 903T474 820T448 696Q448 627 473 574T545 491T654 461Q709 461 747 485T802
538L873 503Q860 475 829 449T754 405T658 388ZM637 197Q703 197 766 216T884 274T981 372T1047 513T1071 698Q1071 801 1047 882T981 1022T884 1120T766 1178T637 1197Q571 1197 507 1178T388 1121T289 1023T223 882T199 698Q199 594 222 513T289 373T387 274T507
216T637 197Z" />
<glyph unicode="&#xaa;" horiz-adv-x="1000" d="M437 1069Q343 1069 293 1107T243 1213Q243 1245 257 1270T300 1314T368 1341T458 1351Q511 1351 551 1339T610 1314V1339Q610 1394 565 1416T462 1439Q412 1439 365 1426T298 1403L272 1464Q297 1476 348 1490T470
1504Q523 1504 573 1489T657 1439T690 1348V1141H757V1077H616L613 1126Q602 1115 578 1101T518 1078T437 1069ZM448 1131Q508 1131 549 1150T608 1189V1255Q589 1269 550 1282T466 1295Q399 1295 361 1274T322 1214Q322 1171 355 1151T448 1131Z" />
<glyph unicode="&#xab;" horiz-adv-x="1300" d="M591 173L155 543L204 635L650 229L591 173ZM155 543V631H205V543H155ZM204 541L155 631L591 1001L650 945L204 541ZM1088 173L652 543L701 635L1147 229L1088 173ZM652 543V631H702V543H652ZM701 541L652 631L1088
1001L1147 945L701 541Z" />
<glyph unicode="&#xac;" horiz-adv-x="1300" d="M849 328V657H946V328H849ZM354 559V657H925V559H354Z" />
<glyph unicode="&#xad;" horiz-adv-x="1300" d="M427 559V657H840V559H427Z" />
<glyph unicode="&#xae;" horiz-adv-x="1300" d="M634 416Q548 416 461 442T303 526T189 678T146 908Q146 1043 189 1137T303 1288T461 1372T634 1399Q721 1399 807 1373T964 1289T1078 1137T1121 908Q1121 773 1078 679T964 527T807 443T634 416ZM761 648L637
884L700 891L833 648H761ZM634 487Q708 487 780 509T912 580T1006 710T1042 908Q1042 1024 1007 1104T912 1234T781 1305T634 1328Q560 1328 488 1306T356 1234T261 1105T225 908Q225 791 260 710T355 580T487 509T634 487ZM485 648V1170H656Q685 1170 720 1160T781
1117T808 1020Q808 952 777 921T708 880T651 870H551V648H485ZM551 928H640Q684 928 712 949T741 1021Q741 1071 713 1090T640 1110H551V928Z" />
<glyph unicode="&#xaf;" horiz-adv-x="1300" d="M289 1314V1405H909V1314H289Z" />
<glyph unicode="&#xb0;" horiz-adv-x="1000" d="M526 1070Q465 1070 416 1099T338 1177T308 1288Q308 1348 337 1397T416 1475T526 1504Q586 1504 635 1475T713 1397T743 1288Q743 1227 714 1178T635 1099T526 1070ZM526 1151Q583 1151 622 1190T661 1288Q661
1345 622 1384T526 1423Q468 1423 429 1384T390 1288Q390 1230 429 1191T526 1151Z" />
<glyph unicode="&#xb1;" horiz-adv-x="1300" d="M198 706V786H1012V706H198ZM198 210V290H1012V210H198ZM556 438V1052H656V438H556Z" />
<glyph unicode="&#xb2;" horiz-adv-x="780" d="M105 560V633Q124 646 162 676T247 748T342 840T430 945T496 1055T521 1163Q521 1226 500 1262T443 1315T364 1331Q300 1331 253 1292T191 1189L108 1229Q125 1288 163 1327T255 1387T366 1407Q436 1407 492 1384T582
1307T616 1165Q616 1098 582 1027T494 890T386 768T288 677T232 633H618V560H105Z" />
<glyph unicode="&#xb3;" horiz-adv-x="781" d="M383 547Q312 547 256 568T163 625T109 708L193 753Q205 717 230 688T294 641T384 624Q435 624 477 646T546 714T572 826Q572 893 549 933T488 992T407 1010Q384 1010 357 1004T306 986L248 1044L524 1326H149V1400H638V1326L368
1056Q376 1061 389 1064T420 1070T452 1073Q501 1073 550 1048T631 968T664 826Q664 758 642 706T581 618T492 565T383 547Z" />
<glyph unicode="&#xb4;" horiz-adv-x="1300" d="M487 1135H370L648 1404H790L487 1135Z" />
<glyph unicode="&#xb5;" horiz-adv-x="1300" d="M232 -400V1000H343V-400H232ZM565 -24Q487 -24 425 0T320 77T255 212T232 412V1000H342V429Q342 302 369 224T451 110T592 74Q652 74 706 98T804 166T875 269T905 396L955 390Q955 310 929 236T854 103T732 10T565
-24ZM911 0L898 192V1000H1008V58L975 93H1130V0H911Z" />
<glyph unicode="&#xb6;" horiz-adv-x="1300" d="M613 -240V658H551Q496 658 431 679T308 745T212 862T175 1037Q175 1132 213 1201T312 1314T447 1379T591 1400H1022V-240H926V1307H709V-240H613Z" />
<glyph unicode="&#xb7;" horiz-adv-x="1000" d="M407 698H547V518H407V698Z" />
<glyph unicode="&#xb8;" horiz-adv-x="1300" d="M606 -400Q578 -400 554 -398T508 -391T467 -382T428 -370L458 -291Q481 -300 504 -307T554 -319T614 -323Q664 -323 702 -309T762 -268T784 -208Q784 -166 758 -154T699 -142Q673 -142 647 -151T599 -172T564 -196L494
-176L547 0H632L583 -155L569 -137Q581 -121 605 -108T662 -85T729 -76Q764 -76 797 -86T851 -124T873 -202Q873 -265 838 -309T743 -376T606 -400Z" />
<glyph unicode="&#xb9;" horiz-adv-x="780" d="M153 560V634H349V1312L155 1261V1345L362 1400H442V634H638V560H153Z" />
<glyph unicode="&#xba;" horiz-adv-x="1000" d="M746 1070Q685 1070 636 1099T558 1177T528 1288Q528 1348 557 1397T636 1475T746 1504Q806 1504 855 1475T933 1397T963 1288Q963 1227 934 1178T855 1099T746 1070ZM746 1151Q803 1151 842 1190T881 1288Q881
1345 842 1384T746 1423Q688 1423 649 1384T610 1288Q610 1230 649 1191T746 1151Z" />
<glyph unicode="&#xbb;" horiz-adv-x="1300" d="M715 173L656 229L1103 635L1152 543L715 173ZM1152 543H1101V631H1152V543ZM1103 541L656 945L715 1001L1152 631L1103 541ZM218 173L159 229L606 635L655 543L218 173ZM655 543H604V631H655V543ZM606 541L159
945L218 1001L655 631L606 541Z" />
<glyph unicode="&#xbc;" horiz-adv-x="1819" d="M153 560V634H349V1312L155 1261V1345L362 1400H442V634H638V560H153ZM582 0L1158 1400H1239L664 0H582ZM1486 0V196H1136V270L1431 840H1575V270H1708V196H1575V0H1486ZM1228 270H1486V776H1488L1228 270Z" />
<glyph unicode="&#xbd;" horiz-adv-x="1820" d="M153 560V634H349V1312L155 1261V1345L362 1400H442V634H638V560H153ZM582 0L1158 1400H1239L664 0H582ZM1145 0V73Q1164 86 1202 116T1287 188T1382 280T1470 385T1536 495T1561 603Q1561 666 1540 702T1483 755T1404
771Q1340 771 1293 732T1231 629L1148 669Q1165 728 1203 767T1295 827T1406 847Q1476 847 1532 824T1622 747T1656 605Q1656 538 1622 467T1534 330T1426 208T1328 117T1272 73H1658V0H1145Z" />
<glyph unicode="&#xbe;" horiz-adv-x="1820" d="M383 547Q312 547 256 568T163 625T109 708L193 753Q205 717 230 688T294 641T384 624Q435 624 477 646T546 714T572 826Q572 893 549 933T488 992T407 1010Q384 1010 357 1004T306 986L248 1044L524 1326H149V1400H638V1326L368
1056Q376 1061 389 1064T420 1070T452 1073Q501 1073 550 1048T631 968T664 826Q664 758 642 706T581 618T492 565T383 547ZM583 0L1159 1400H1240L665 0H583ZM1487 0V196H1137V270L1432 840H1576V270H1709V196H1576V0H1487ZM1229 270H1487V776H1489L1229 270Z"
/>
<glyph unicode="&#xbf;" horiz-adv-x="1300" d="M697 643V580Q697 508 678 449T626 341T556 250T479 170Q440 130 405 91T349 10T327 -81Q327 -149 353 -195T422 -267T515 -305T613 -317Q669 -317 722 -302T821 -259T899 -193T951 -108L1048 -162Q1023 -229 959
-286T806 -377T614 -412Q537 -412 466 -395T338 -340T249 -238T216 -83Q216 -20 241 30T306 126T390 214Q441 263 488 316T565 434T595 583V643H697ZM715 820H576V1000H715V820Z" />
<glyph unicode="&#xc0;" horiz-adv-x="1300" d="M1155 0H1036L926 390H378L268 0H149L550 1400H754L1155 0ZM637 1307L400 483H904L667 1307H637ZM594 1535L290 1804H432L710 1535H594Z" />
<glyph unicode="&#xc1;" horiz-adv-x="1300" d="M1155 0H1036L926 390H378L268 0H149L550 1400H754L1155 0ZM637 1307L400 483H904L667 1307H637ZM699 1535H582L860 1804H1002L699 1535Z" />
<glyph unicode="&#xc2;" horiz-adv-x="1300" d="M1155 0H1036L926 390H378L268 0H149L550 1400H754L1155 0ZM637 1307L400 483H904L667 1307H637ZM340 1533L607 1783H696L963 1533H839L652 1719L464 1533H340Z" />
<glyph unicode="&#xc3;" horiz-adv-x="1300" d="M1155 0H1036L926 390H378L268 0H149L550 1400H754L1155 0ZM637 1307L400 483H904L667 1307H637ZM764 1537Q718 1537 689 1555T635 1594Q613 1612 592 1626T540 1640Q488 1640 460 1607T419 1553L351 1609Q357 1623
381 1651T446 1704T540 1728Q585 1728 614 1710T668 1671Q690 1652 712 1638T764 1623Q816 1623 845 1657T884 1713L949 1656Q944 1642 923 1614T862 1562T764 1537Z" />
<glyph unicode="&#xc4;" horiz-adv-x="1300" d="M1155 0H1036L926 390H378L268 0H149L550 1400H754L1155 0ZM637 1307L400 483H904L667 1307H637ZM377 1733H500V1553H377V1733ZM802 1733H924V1553H802V1733Z" />
<glyph unicode="&#xc5;" horiz-adv-x="1300" d="M1155 0H1036L926 390H378L268 0H149L550 1400H754L1155 0ZM637 1307L400 483H904L667 1307H637ZM654 1499Q609 1499 572 1520T512 1578T489 1661Q489 1705 511 1741T571 1800T654 1822Q697 1822 734 1800T793 1742T815
1661Q815 1615 793 1578T734 1520T654 1499ZM654 1572Q691 1572 717 1596T743 1663Q743 1700 717 1723T654 1747Q616 1747 590 1724T563 1663Q563 1621 589 1597T654 1572Z" />
<glyph unicode="&#xc6;" horiz-adv-x="1700" d="M830 0V1307H684L718 1400H1479V1307H940V735H1413V641H940V93H1479V0H830ZM377 356L411 446H873L861 356H377ZM159 0L668 1400H778L277 0H159Z" />
<glyph unicode="&#xc7;" horiz-adv-x="1300" d="M731 -400Q702 -400 678 -398T632 -391T591 -382T553 -370L583 -291Q605 -300 628 -307T678 -319T739 -323Q788 -323 826 -309T886 -268T908 -208Q908 -166 883 -154T824 -142Q798 -142 772 -151T724 -172T689 -196L619
-176L672 0H756L708 -155L693 -137Q705 -121 729 -108T786 -85T853 -76Q888 -76 921 -86T975 -124T997 -202Q997 -265 963 -309T868 -376T731 -400ZM705 -22Q619 -22 538 4T385 86T261 227T177 429T147 696Q147 846 178 962T263 1164T389 1304T543 1385T712 1412Q792
1412 858 1389T978 1326T1070 1235T1134 1125L1033 1075Q1015 1120 987 1163T919 1240T828 1295T711 1316Q630 1316 551 1281T406 1170T302 978T263 696Q263 532 301 414T404 221T546 110T704 74Q770 74 822 95T915 150T984 226T1033 307L1134 254Q1110 202 1071
153T978 64T856 1T705 -22Z" />
<glyph unicode="&#xc8;" horiz-adv-x="1300" d="M263 0V1400H1087V1307H373V735H1001V641H373V93H1087V0H263ZM639 1535L335 1804H477L755 1535H639Z" />
<glyph unicode="&#xc9;" horiz-adv-x="1300" d="M263 0V1400H1087V1307H373V735H1001V641H373V93H1087V0H263ZM744 1535H627L905 1804H1047L744 1535Z" />
<glyph unicode="&#xca;" horiz-adv-x="1300" d="M263 0V1400H1087V1307H373V735H1001V641H373V93H1087V0H263ZM386 1533L653 1783H742L1009 1533H885L698 1719L510 1533H386Z" />
<glyph unicode="&#xcb;" horiz-adv-x="1300" d="M263 0V1400H1087V1307H373V735H1001V641H373V93H1087V0H263ZM422 1733H545V1553H422V1733ZM847 1733H969V1553H847V1733Z" />
<glyph unicode="&#xcc;" horiz-adv-x="1300" d="M299 0V93H594V1307H299V1400H1001V1307H704V93H1001V0H299ZM594 1535L290 1804H432L710 1535H594Z" />
<glyph unicode="&#xcd;" horiz-adv-x="1300" d="M299 0V93H594V1307H299V1400H1001V1307H704V93H1001V0H299ZM699 1535H582L860 1804H1002L699 1535Z" />
<glyph unicode="&#xce;" horiz-adv-x="1300" d="M299 0V93H594V1307H299V1400H1001V1307H704V93H1001V0H299ZM340 1533L607 1783H696L963 1533H839L652 1719L464 1533H340Z" />
<glyph unicode="&#xcf;" horiz-adv-x="1300" d="M299 0V93H594V1307H299V1400H1001V1307H704V93H1001V0H299ZM377 1733H500V1553H377V1733ZM802 1733H924V1553H802V1733Z" />
<glyph unicode="&#xd0;" horiz-adv-x="1300" d="M243 0V655H64V745H243V1400H554Q623 1400 691 1388T824 1345T944 1263T1041 1134T1106 949T1129 700Q1129 558 1106 451T1041 267T944 138T825 56T692 13T554 0H243ZM353 93H546Q636 93 719 120T870 215T977 401T1016
700Q1016 881 977 999T871 1184T720 1279T546 1307H353V745H673V655H353V93Z" />
<glyph unicode="&#xd1;" horiz-adv-x="1300" d="M193 0V1400H354L997 109H984V1400H1094V0H944L297 1287H303V0H193ZM753 1537Q707 1537 678 1555T624 1594Q602 1612 581 1626T529 1640Q477 1640 449 1607T408 1553L340 1609Q346 1623 370 1651T435 1704T529 1728Q574
1728 603 1710T657 1671Q679 1652 701 1638T753 1623Q805 1623 834 1657T873 1713L938 1656Q933 1642 912 1614T851 1562T753 1537Z" />
<glyph unicode="&#xd2;" horiz-adv-x="1300" d="M649 -22Q566 -22 487 4T339 84T219 224T138 426T108 696Q108 848 137 965T218 1167T338 1306T486 1386T649 1412Q733 1412 811 1386T958 1306T1078 1167T1159 965T1189 696Q1189 543 1160 426T1079 224T959 85T812
4T649 -22ZM649 74Q728 74 803 109T940 220T1038 413T1075 696Q1075 860 1039 977T941 1170T804 1280T649 1316Q570 1316 494 1281T357 1170T259 978T222 696Q222 531 258 414T356 221T494 110T649 74ZM590 1535L286 1804H428L706 1535H590Z" />
<glyph unicode="&#xd3;" horiz-adv-x="1300" d="M649 -22Q566 -22 487 4T339 84T219 224T138 426T108 696Q108 848 137 965T218 1167T338 1306T486 1386T649 1412Q733 1412 811 1386T958 1306T1078 1167T1159 965T1189 696Q1189 543 1160 426T1079 224T959 85T812
4T649 -22ZM649 74Q728 74 803 109T940 220T1038 413T1075 696Q1075 860 1039 977T941 1170T804 1280T649 1316Q570 1316 494 1281T357 1170T259 978T222 696Q222 531 258 414T356 221T494 110T649 74ZM695 1535H578L856 1804H998L695 1535Z" />
<glyph unicode="&#xd4;" horiz-adv-x="1300" d="M649 -22Q566 -22 487 4T339 84T219 224T138 426T108 696Q108 848 137 965T218 1167T338 1306T486 1386T649 1412Q733 1412 811 1386T958 1306T1078 1167T1159 965T1189 696Q1189 543 1160 426T1079 224T959 85T812
4T649 -22ZM649 74Q728 74 803 109T940 220T1038 413T1075 696Q1075 860 1039 977T941 1170T804 1280T649 1316Q570 1316 494 1281T357 1170T259 978T222 696Q222 531 258 414T356 221T494 110T649 74ZM337 1533L604 1783H693L960 1533H836L649 1719L461 1533H337Z"
/>
<glyph unicode="&#xd5;" horiz-adv-x="1300" d="M649 -22Q566 -22 487 4T339 84T219 224T138 426T108 696Q108 848 137 965T218 1167T338 1306T486 1386T649 1412Q733 1412 811 1386T958 1306T1078 1167T1159 965T1189 696Q1189 543 1160 426T1079 224T959 85T812
4T649 -22ZM649 74Q728 74 803 109T940 220T1038 413T1075 696Q1075 860 1039 977T941 1170T804 1280T649 1316Q570 1316 494 1281T357 1170T259 978T222 696Q222 531 258 414T356 221T494 110T649 74ZM760 1537Q714 1537 685 1555T631 1594Q609 1612 588 1626T536
1640Q484 1640 456 1607T415 1553L347 1609Q353 1623 377 1651T442 1704T536 1728Q581 1728 610 1710T664 1671Q686 1652 708 1638T760 1623Q812 1623 841 1657T880 1713L945 1656Q940 1642 919 1614T858 1562T760 1537Z" />
<glyph unicode="&#xd6;" horiz-adv-x="1300" d="M649 -22Q566 -22 487 4T339 84T219 224T138 426T108 696Q108 848 137 965T218 1167T338 1306T486 1386T649 1412Q733 1412 811 1386T958 1306T1078 1167T1159 965T1189 696Q1189 543 1160 426T1079 224T959 85T812
4T649 -22ZM649 74Q728 74 803 109T940 220T1038 413T1075 696Q1075 860 1039 977T941 1170T804 1280T649 1316Q570 1316 494 1281T357 1170T259 978T222 696Q222 531 258 414T356 221T494 110T649 74ZM374 1733H497V1553H374V1733ZM799 1733H921V1553H799V1733Z"
/>
<glyph unicode="&#xd7;" horiz-adv-x="1300" d="M835 309L307 838L375 907L905 377L835 309ZM374 309L305 377L834 907L903 838L374 309Z" />
<glyph unicode="&#xd8;" horiz-adv-x="1300" d="M137 26L1080 1418L1163 1362L220 -30L137 26ZM649 -22Q566 -22 487 4T339 84T219 224T138 426T108 696Q108 848 137 965T218 1167T338 1306T486 1386T649 1412Q733 1412 811 1386T958 1306T1078 1167T1159 965T1189
696Q1189 543 1160 426T1079 224T959 85T812 4T649 -22ZM649 74Q728 74 803 109T940 220T1038 413T1075 696Q1075 860 1039 977T941 1170T804 1280T649 1316Q570 1316 494 1281T357 1170T259 978T222 696Q222 531 258 414T356 221T494 110T649 74Z" />
<glyph unicode="&#xd9;" horiz-adv-x="1300" d="M652 -22Q556 -22 472 11T324 114T224 295T188 560V1400H298V566Q298 401 341 292T464 129T652 75Q761 75 840 129T961 292T1004 566V1400H1114V560Q1114 406 1079 295T980 114T833 11T652 -22ZM592 1535L288 1804H430L708
1535H592Z" />
<glyph unicode="&#xda;" horiz-adv-x="1300" d="M652 -22Q556 -22 472 11T324 114T224 295T188 560V1400H298V566Q298 401 341 292T464 129T652 75Q761 75 840 129T961 292T1004 566V1400H1114V560Q1114 406 1079 295T980 114T833 11T652 -22ZM697 1535H580L858
1804H1000L697 1535Z" />
<glyph unicode="&#xdb;" horiz-adv-x="1300" d="M652 -22Q556 -22 472 11T324 114T224 295T188 560V1400H298V566Q298 401 341 292T464 129T652 75Q761 75 840 129T961 292T1004 566V1400H1114V560Q1114 406 1079 295T980 114T833 11T652 -22ZM338 1533L605 1783H694L961
1533H837L650 1719L462 1533H338Z" />
<glyph unicode="&#xdc;" horiz-adv-x="1300" d="M652 -22Q556 -22 472 11T324 114T224 295T188 560V1400H298V566Q298 401 341 292T464 129T652 75Q761 75 840 129T961 292T1004 566V1400H1114V560Q1114 406 1079 295T980 114T833 11T652 -22ZM375 1733H498V1553H375V1733ZM800
1733H922V1553H800V1733Z" />
<glyph unicode="&#xdd;" horiz-adv-x="1300" d="M586 0V554L165 1400H284L641 662L996 1400H1115L696 554V0H586ZM687 1535H570L848 1804H990L687 1535Z" />
<glyph unicode="&#xde;" horiz-adv-x="1300" d="M278 0V1400H388V1176H585Q633 1176 694 1167T819 1133T936 1056T1022 922T1055 714Q1055 590 1023 507T937 374T820 298T695 265T585 256H388V0H278ZM388 349H578Q615 349 662 355T759 380T851 439T918 546T943
714Q943 815 918 882T851 990T760 1050T663 1076T578 1083H388V349Z" />
<glyph unicode="&#xdf;" horiz-adv-x="1300" d="M678 -22Q617 -22 570 -15T487 2T427 22L455 120Q477 110 532 93T672 75Q730 75 789 88T897 132T977 222T1008 371Q1008 448 978 498T904 583T816 643Q784 663 757 683T712 728T695 782Q695 816 708 841T744 887T790
928Q818 952 845 978T889 1040T907 1125Q907 1189 885 1236T825 1314T738 1360T634 1376Q575 1376 517 1357T412 1297T336 1190T307 1027V0H197V1048Q197 1156 233 1236T331 1369T471 1447T634 1473Q745 1473 831 1434T967 1317T1016 1129Q1016 1065 994 1018T940
934T875 871Q847 847 828 827T808 786Q808 769 830 751T886 714Q920 693 960 666T1037 598T1096 502T1119 370Q1119 264 1085 190T989 69T848 0T678 -22Z" />
<glyph unicode="&#xe0;" horiz-adv-x="1300" d="M583 -22Q496 -22 424 -1T301 62T222 163T194 300Q194 365 217 415T280 503T372 564T482 600T599 612Q677 612 742 595T854 552T922 502V687Q922 757 895 804T824 878T726 917T616 929Q564 929 516 918T424 888T349
848T295 808L238 895Q272 925 328 955T461 1004T627 1024Q683 1024 740 1014T849 980T943 920T1007 829T1031 704V93H1193V0H934L928 131Q908 98 862 63T746 3T583 -22ZM600 71Q694 71 758 99T863 167T922 237V401Q899 431 850 460T738 508T611 527Q535 527 465
504T350 431T305 303Q305 225 341 174T443 97T600 71ZM837 1135L533 1404H675L953 1135H837Z" />
<glyph unicode="&#xe1;" horiz-adv-x="1300" d="M583 -22Q496 -22 424 -1T301 62T222 163T194 300Q194 365 217 415T280 503T372 564T482 600T599 612Q677 612 742 595T854 552T922 502V687Q922 757 895 804T824 878T726 917T616 929Q564 929 516 918T424 888T349
848T295 808L238 895Q272 925 328 955T461 1004T627 1024Q683 1024 740 1014T849 980T943 920T1007 829T1031 704V93H1193V0H934L928 131Q908 98 862 63T746 3T583 -22ZM600 71Q694 71 758 99T863 167T922 237V401Q899 431 850 460T738 508T611 527Q535 527 465
504T350 431T305 303Q305 225 341 174T443 97T600 71ZM686 1135H569L847 1404H989L686 1135Z" />
<glyph unicode="&#xe2;" horiz-adv-x="1300" d="M583 -22Q496 -22 424 -1T301 62T222 163T194 300Q194 365 217 415T280 503T372 564T482 600T599 612Q677 612 742 595T854 552T922 502V687Q922 757 895 804T824 878T726 917T616 929Q564 929 516 918T424 888T349
848T295 808L238 895Q272 925 328 955T461 1004T627 1024Q683 1024 740 1014T849 980T943 920T1007 829T1031 704V93H1193V0H934L928 131Q908 98 862 63T746 3T583 -22ZM600 71Q694 71 758 99T863 167T922 237V401Q899 431 850 460T738 508T611 527Q535 527 465
504T350 431T305 303Q305 225 341 174T443 97T600 71ZM583 1133L850 1383H939L1206 1133H1082L895 1319L707 1133H583Z" />
<glyph unicode="&#xe3;" horiz-adv-x="1300" d="M583 -22Q496 -22 424 -1T301 62T222 163T194 300Q194 365 217 415T280 503T372 564T482 600T599 612Q677 612 742 595T854 552T922 502V687Q922 757 895 804T824 878T726 917T616 929Q564 929 516 918T424 888T349
848T295 808L238 895Q272 925 328 955T461 1004T627 1024Q683 1024 740 1014T849 980T943 920T1007 829T1031 704V93H1193V0H934L928 131Q908 98 862 63T746 3T583 -22ZM600 71Q694 71 758 99T863 167T922 237V401Q899 431 850 460T738 508T611 527Q535 527 465
504T350 431T305 303Q305 225 341 174T443 97T600 71ZM751 1137Q705 1137 676 1155T622 1194Q600 1212 579 1226T527 1240Q475 1240 447 1207T406 1153L338 1209Q344 1223 368 1251T433 1304T527 1328Q572 1328 601 1310T655 1271Q677 1252 699 1238T751 1223Q803
1223 832 1257T871 1313L936 1256Q931 1242 910 1214T849 1162T751 1137Z" />
<glyph unicode="&#xe4;" horiz-adv-x="1300" d="M583 -22Q496 -22 424 -1T301 62T222 163T194 300Q194 365 217 415T280 503T372 564T482 600T599 612Q677 612 742 595T854 552T922 502V687Q922 757 895 804T824 878T726 917T616 929Q564 929 516 918T424 888T349
848T295 808L238 895Q272 925 328 955T461 1004T627 1024Q683 1024 740 1014T849 980T943 920T1007 829T1031 704V93H1193V0H934L928 131Q908 98 862 63T746 3T583 -22ZM600 71Q694 71 758 99T863 167T922 237V401Q899 431 850 460T738 508T611 527Q535 527 465
504T350 431T305 303Q305 225 341 174T443 97T600 71ZM364 1333H487V1153H364V1333ZM789 1333H911V1153H789V1333Z" />
<glyph unicode="&#xe5;" horiz-adv-x="1300" d="M583 -22Q496 -22 424 -1T301 62T222 163T194 300Q194 365 217 415T280 503T372 564T482 600T599 612Q677 612 742 595T854 552T922 502V687Q922 757 895 804T824 878T726 917T616 929Q564 929 516 918T424 888T349
848T295 808L238 895Q272 925 328 955T461 1004T627 1024Q683 1024 740 1014T849 980T943 920T1007 829T1031 704V93H1193V0H934L928 131Q908 98 862 63T746 3T583 -22ZM600 71Q694 71 758 99T863 167T922 237V401Q899 431 850 460T738 508T611 527Q535 527 465
504T350 431T305 303Q305 225 341 174T443 97T600 71ZM641 1099Q596 1099 559 1120T499 1178T476 1261Q476 1305 498 1341T558 1400T641 1422Q684 1422 721 1400T780 1342T802 1261Q802 1215 780 1178T721 1120T641 1099ZM641 1172Q678 1172 704 1196T730 1263Q730
1300 704 1323T641 1347Q603 1347 577 1324T550 1263Q550 1221 576 1197T641 1172Z" />
<glyph unicode="&#xe6;" horiz-adv-x="1700" d="M432 -22Q336 -22 265 4T145 76T72 184T48 319Q48 377 67 426T123 515T213 583T333 626T482 641Q546 641 599 630T693 602T756 572V730Q756 783 733 821T670 883T580 918T473 929Q408 929 344 913T229 874T151 835L99
925Q133 944 190 967T324 1007T490 1024Q572 1024 648 1001T777 931T843 810Q884 883 943 930T1073 1001T1216 1024Q1309 1024 1387 993T1522 902T1612 758T1644 565Q1644 550 1643 530T1639 494H875Q876 367 919 272T1039 125T1214 73Q1308 73 1366 101T1457 171T1502
249L1608 193Q1592 160 1561 123T1483 52T1368 -1T1212 -22Q1132 -22 1058 5T922 87T822 229Q795 158 742 102T610 12T432 -22ZM451 70Q552 70 620 116T722 236T756 390V484Q737 496 708 508T644 531T572 548T496 555Q387 555 312 528T197 447T158 320Q158 246
189 190T286 102T451 70ZM878 579H1523V601Q1523 677 1501 737T1439 841T1343 906T1215 929Q1135 929 1062 891T940 776T878 579Z" />
<glyph unicode="&#xe7;" horiz-adv-x="1300" d="M704 -22Q643 -22 578 -3T452 55T343 157T267 304T238 502Q238 615 266 701T343 848T451 948T577 1005T704 1024Q783 1024 846 1003T957 947T1038 871T1084 789L982 741Q968 784 933 827T840 900T706 929Q648 929
587 905T472 828T387 695T355 502Q355 391 387 311T472 177T586 99T706 73Q784 73 841 102T933 175T980 259L1084 209Q1071 173 1040 133T960 58T847 0T704 -22ZM708 -400Q680 -400 656 -398T610 -391T569 -382T530 -370L560 -291Q583 -300 606 -307T656 -319T716
-323Q766 -323 804 -309T864 -268T886 -208Q886 -166 860 -154T801 -142Q775 -142 749 -151T701 -172T666 -196L596 -176L649 0H734L685 -155L671 -137Q683 -121 707 -108T764 -85T831 -76Q866 -76 899 -86T953 -124T975 -202Q975 -265 940 -309T845 -376T708 -400Z"
/>
<glyph unicode="&#xe8;" horiz-adv-x="1300" d="M651 -22Q570 -22 487 7T333 99T221 262T178 502Q178 642 221 742T336 904T491 995T655 1024Q743 1024 825 995T971 908T1074 765T1112 565Q1112 550 1112 530T1108 494H263V579H991Q991 587 991 590T991 601Q991
708 943 781T818 892T655 929Q594 929 531 906T414 832T327 700T293 502Q293 358 347 263T485 121T655 73Q742 73 807 99T914 166T971 249L1078 193Q1060 155 1023 117T931 48T806 -3T651 -22ZM858 1135L554 1404H696L974 1135H858Z" />
<glyph unicode="&#xe9;" horiz-adv-x="1300" d="M651 -22Q570 -22 487 7T333 99T221 262T178 502Q178 642 221 742T336 904T491 995T655 1024Q743 1024 825 995T971 908T1074 765T1112 565Q1112 550 1112 530T1108 494H263V579H991Q991 587 991 590T991 601Q991
708 943 781T818 892T655 929Q594 929 531 906T414 832T327 700T293 502Q293 358 347 263T485 121T655 73Q742 73 807 99T914 166T971 249L1078 193Q1060 155 1023 117T931 48T806 -3T651 -22ZM707 1135H590L868 1404H1010L707 1135Z" />
<glyph unicode="&#xea;" horiz-adv-x="1300" d="M651 -22Q570 -22 487 7T333 99T221 262T178 502Q178 642 221 742T336 904T491 995T655 1024Q743 1024 825 995T971 908T1074 765T1112 565Q1112 550 1112 530T1108 494H263V579H991Q991 587 991 590T991 601Q991
708 943 781T818 892T655 929Q594 929 531 906T414 832T327 700T293 502Q293 358 347 263T485 121T655 73Q742 73 807 99T914 166T971 249L1078 193Q1060 155 1023 117T931 48T806 -3T651 -22ZM349 1133L616 1383H705L972 1133H848L661 1319L473 1133H349Z" />
<glyph unicode="&#xeb;" horiz-adv-x="1300" d="M651 -22Q570 -22 487 7T333 99T221 262T178 502Q178 642 221 742T336 904T491 995T655 1024Q743 1024 825 995T971 908T1074 765T1112 565Q1112 550 1112 530T1108 494H263V579H991Q991 587 991 590T991 601Q991
708 943 781T818 892T655 929Q594 929 531 906T414 832T327 700T293 502Q293 358 347 263T485 121T655 73Q742 73 807 99T914 166T971 249L1078 193Q1060 155 1023 117T931 48T806 -3T651 -22ZM386 1333H509V1153H386V1333ZM811 1333H933V1153H811V1333Z" />
<glyph unicode="&#xec;" horiz-adv-x="1000" d="M159 0V93H512V907H159V1000H622V93H944V0H159ZM505 1135L201 1404H343L621 1135H505Z" />
<glyph unicode="&#xed;" horiz-adv-x="1000" d="M159 0V93H512V907H159V1000H622V93H944V0H159ZM610 1135H493L771 1404H913L610 1135Z" />
<glyph unicode="&#xee;" horiz-adv-x="1000" d="M159 0V93H512V907H159V1000H622V93H944V0H159ZM507 1133L774 1383H863L1130 1133H1006L819 1319L631 1133H507Z" />
<glyph unicode="&#xef;" horiz-adv-x="1000" d="M159 0V93H512V907H159V1000H622V93H944V0H159ZM544 1333H667V1153H544V1333ZM969 1333H1091V1153H969V1333Z" />
<glyph unicode="&#xf0;" horiz-adv-x="1300" d="M634 -22Q536 -22 455 15T314 122T223 288T191 502Q191 621 219 717T303 882T439 987T625 1024Q722 1024 797 991T924 901T1004 777T1035 638L956 564Q956 645 934 712T871 827T769 901T629 927Q553 927 493 897T390
812T326 678T303 502Q303 407 326 329T394 194T499 106T636 75Q709 75 767 103T867 196T931 371T954 646Q954 794 920 920T826 1148T690 1325T529 1446T363 1507L411 1595Q512 1573 608 1517T789 1375T936 1178T1035 936T1071 656Q1071 466 1038 336T944 127T805
13T634 -22ZM518 1295L449 1365L766 1577L823 1498L518 1295Z" />
<glyph unicode="&#xf1;" horiz-adv-x="1300" d="M264 0V1000H367L375 801V0H264ZM934 0V571Q934 698 907 776T825 890T684 926Q624 926 570 902T472 834T401 731T371 604L321 610Q321 690 347 764T422 897T544 990T711 1024Q790 1024 851 1000T956 923T1021 788T1044
588V0H934ZM780 1137Q734 1137 705 1155T651 1194Q629 1212 608 1226T556 1240Q504 1240 476 1207T435 1153L367 1209Q373 1223 397 1251T462 1304T556 1328Q601 1328 630 1310T684 1271Q706 1252 728 1238T780 1223Q832 1223 861 1257T900 1313L965 1256Q960 1242
939 1214T878 1162T780 1137Z" />
<glyph unicode="&#xf2;" horiz-adv-x="1300" d="M656 -22Q593 -22 528 -5T401 51T292 150T215 299T187 502Q187 617 215 704T291 852T401 951T527 1006T656 1024Q718 1024 783 1007T910 951T1020 852T1096 704T1125 502Q1125 386 1097 299T1020 151T911 51T784
-4T656 -22ZM656 73Q711 73 772 93T888 162T976 294T1011 502Q1011 625 977 707T888 838T773 908T656 929Q601 929 540 908T424 838T335 707T301 502Q301 378 335 295T423 163T539 94T656 73ZM854 1135L550 1404H692L970 1135H854Z" />
<glyph unicode="&#xf3;" horiz-adv-x="1300" d="M656 -22Q593 -22 528 -5T401 51T292 150T215 299T187 502Q187 617 215 704T291 852T401 951T527 1006T656 1024Q718 1024 783 1007T910 951T1020 852T1096 704T1125 502Q1125 386 1097 299T1020 151T911 51T784
-4T656 -22ZM656 73Q711 73 772 93T888 162T976 294T1011 502Q1011 625 977 707T888 838T773 908T656 929Q601 929 540 908T424 838T335 707T301 502Q301 378 335 295T423 163T539 94T656 73ZM703 1135H586L864 1404H1006L703 1135Z" />
<glyph unicode="&#xf4;" horiz-adv-x="1300" d="M656 -22Q593 -22 528 -5T401 51T292 150T215 299T187 502Q187 617 215 704T291 852T401 951T527 1006T656 1024Q718 1024 783 1007T910 951T1020 852T1096 704T1125 502Q1125 386 1097 299T1020 151T911 51T784
-4T656 -22ZM656 73Q711 73 772 93T888 162T976 294T1011 502Q1011 625 977 707T888 838T773 908T656 929Q601 929 540 908T424 838T335 707T301 502Q301 378 335 295T423 163T539 94T656 73ZM344 1133L611 1383H700L967 1133H843L656 1319L468 1133H344Z" />
<glyph unicode="&#xf5;" horiz-adv-x="1300" d="M656 -22Q593 -22 528 -5T401 51T292 150T215 299T187 502Q187 617 215 704T291 852T401 951T527 1006T656 1024Q718 1024 783 1007T910 951T1020 852T1096 704T1125 502Q1125 386 1097 299T1020 151T911 51T784
-4T656 -22ZM656 73Q711 73 772 93T888 162T976 294T1011 502Q1011 625 977 707T888 838T773 908T656 929Q601 929 540 908T424 838T335 707T301 502Q301 378 335 295T423 163T539 94T656 73ZM767 1137Q721 1137 692 1155T638 1194Q616 1212 595 1226T543 1240Q491
1240 463 1207T422 1153L354 1209Q360 1223 384 1251T449 1304T543 1328Q588 1328 617 1310T671 1271Q693 1252 715 1238T767 1223Q819 1223 848 1257T887 1313L952 1256Q947 1242 926 1214T865 1162T767 1137Z" />
<glyph unicode="&#xf6;" horiz-adv-x="1300" d="M656 -22Q593 -22 528 -5T401 51T292 150T215 299T187 502Q187 617 215 704T291 852T401 951T527 1006T656 1024Q718 1024 783 1007T910 951T1020 852T1096 704T1125 502Q1125 386 1097 299T1020 151T911 51T784
-4T656 -22ZM656 73Q711 73 772 93T888 162T976 294T1011 502Q1011 625 977 707T888 838T773 908T656 929Q601 929 540 908T424 838T335 707T301 502Q301 378 335 295T423 163T539 94T656 73ZM381 1333H504V1153H381V1333ZM806 1333H928V1153H806V1333Z" />
<glyph unicode="&#xf7;" horiz-adv-x="1300" d="M231 559V657H979V559H231ZM596 231Q559 231 533 257T507 321Q507 357 533 383T596 410Q634 410 659 384T685 321Q685 284 660 258T596 231ZM596 812Q559 812 533 839T507 903Q507 939 533 965T596 991Q634 991
659 965T685 903Q685 866 660 839T596 812Z" />
<glyph unicode="&#xf8;" horiz-adv-x="1300" d="M238 24L1014 1026L1075 982L300 -20L238 24ZM656 -22Q593 -22 528 -5T401 51T292 150T215 299T187 502Q187 617 215 704T291 852T401 951T527 1006T656 1024Q718 1024 783 1007T910 951T1020 852T1096 704T1125
502Q1125 386 1097 299T1020 151T911 51T784 -4T656 -22ZM656 73Q711 73 772 93T888 162T976 294T1011 502Q1011 625 977 707T888 838T773 908T656 929Q601 929 540 908T424 838T335 707T301 502Q301 378 335 295T423 163T539 94T656 73Z" />
<glyph unicode="&#xf9;" horiz-adv-x="1300" d="M565 -24Q487 -24 425 0T320 77T255 212T232 412V1000H342V429Q342 302 369 224T451 110T592 74Q652 74 706 98T804 166T875 269T905 396L955 390Q955 310 929 236T854 103T732 10T565 -24ZM911 0L898 192V1000H1008V58L975
93H1130V0H911ZM820 1135L516 1404H658L936 1135H820Z" />
<glyph unicode="&#xfa;" horiz-adv-x="1300" d="M565 -24Q487 -24 425 0T320 77T255 212T232 412V1000H342V429Q342 302 369 224T451 110T592 74Q652 74 706 98T804 166T875 269T905 396L955 390Q955 310 929 236T854 103T732 10T565 -24ZM911 0L898 192V1000H1008V58L975
93H1130V0H911ZM669 1135H552L830 1404H972L669 1135Z" />
<glyph unicode="&#xfb;" horiz-adv-x="1300" d="M565 -24Q487 -24 425 0T320 77T255 212T232 412V1000H342V429Q342 302 369 224T451 110T592 74Q652 74 706 98T804 166T875 269T905 396L955 390Q955 310 929 236T854 103T732 10T565 -24ZM911 0L898 192V1000H1008V58L975
93H1130V0H911ZM567 1133L834 1383H923L1190 1133H1066L879 1319L691 1133H567Z" />
<glyph unicode="&#xfc;" horiz-adv-x="1300" d="M565 -24Q487 -24 425 0T320 77T255 212T232 412V1000H342V429Q342 302 369 224T451 110T592 74Q652 74 706 98T804 166T875 269T905 396L955 390Q955 310 929 236T854 103T732 10T565 -24ZM911 0L898 192V1000H1008V58L975
93H1130V0H911ZM604 1333H727V1153H604V1333ZM1029 1333H1151V1153H1029V1333Z" />
<glyph unicode="&#xfd;" horiz-adv-x="1300" d="M448 -400L620 33L639 -9H589L197 1000H315L667 79H640L985 1000H1101L563 -400H448ZM680 1135H563L841 1404H983L680 1135Z" />
<glyph unicode="&#xfe;" horiz-adv-x="1300" d="M236 -400V1500H346V-400H236ZM673 -22Q582 -22 510 15T388 114T312 250T286 398L342 415Q349 353 373 293T435 183T527 105T648 75Q732 75 807 119T930 258T978 502Q978 654 933 746T814 882T656 925Q588 925 535
898T441 825T376 723T341 609L287 625Q287 695 314 765T394 893T519 986T683 1022Q782 1022 875 968T1028 799T1088 502Q1088 366 1052 267T955 103T822 9T673 -22Z" />
<glyph unicode="&#xff;" horiz-adv-x="1300" d="M448 -400L620 33L639 -9H589L197 1000H315L667 79H640L985 1000H1101L563 -400H448ZM359 1333H482V1153H359V1333ZM784 1333H906V1153H784V1333Z" />
<glyph unicode="&#x2013;" horiz-adv-x="1300" d="M223 559V657H957V559H223Z" />
<glyph unicode="&#x2014;" horiz-adv-x="1300" d="M65 559V657H1131V559H65Z" />
<glyph unicode="&#x2018;" horiz-adv-x="1000" d="M556 1428L607 1356Q588 1348 566 1333T528 1289T513 1214L423 1219Q423 1281 445 1323T498 1392T556 1428ZM579 1219V1040H423V1219H579Z" />
<glyph unicode="&#x2019;" horiz-adv-x="1000" d="M433 1012L382 1084Q403 1092 424 1107T461 1151T477 1225L567 1220Q567 1159 545 1117T491 1049T433 1012ZM410 1220V1400H567V1220H410Z" />
<glyph unicode="&#x201a;" horiz-adv-x="1000" d="M441 -209L390 -136Q410 -128 432 -113T469 -70T484 5L574 0Q574 -61 553 -103T500 -172T441 -209ZM418 0V180H574V0H418Z" />
<glyph unicode="&#x201c;" horiz-adv-x="1300" d="M581 1425L632 1353Q613 1345 591 1330T553 1286T537 1211L447 1216Q447 1278 469 1320T523 1389T581 1425ZM604 1216V1037H447V1216H604ZM890 1425L941 1353Q921 1345 899 1330T862 1286T846 1211L756 1216Q756
1278 778 1320T832 1389T890 1425ZM913 1216V1037H756V1216H913Z" />
<glyph unicode="&#x201d;" horiz-adv-x="1300" d="M723 1012L672 1084Q693 1092 715 1107T752 1151T767 1225L857 1220Q857 1159 835 1117T782 1049T723 1012ZM700 1220V1400H857V1220H700ZM414 1012L363 1084Q384 1092 406 1107T443 1151T458 1225L548 1220Q548
1159 526 1117T473 1049T414 1012ZM391 1220V1400H548V1220H391Z" />
<glyph unicode="&#x201e;" horiz-adv-x="1300" d="M487 -209L436 -136Q456 -128 478 -113T515 -70T530 5L620 0Q620 -61 599 -103T546 -172T487 -209ZM464 0V180H620V0H464ZM780 -209L729 -136Q749 -128 771 -113T808 -70T823 5L913 0Q913 -61 892 -103T839 -172T780
-209ZM757 0V180H913V0H757Z" />
<glyph unicode="&#x2022;" horiz-adv-x="1300" d="M592 483Q539 483 497 508T430 575T405 670Q405 723 430 766T497 834T592 859Q645 859 687 834T754 766T779 670Q779 618 755 576T688 508T592 483Z" />
<glyph unicode="&#x2039;" horiz-adv-x="1300" d="M804 173L368 543L417 635L863 229L804 173ZM368 543V631H418V543H368ZM417 541L368 631L804 1001L863 945L417 541Z" />
<glyph unicode="&#x203a;" horiz-adv-x="1300" d="M459 173L400 229L847 635L896 543L459 173ZM896 543H845V631H896V543ZM847 541L400 945L459 1001L896 631L847 541Z" />
</font>
</defs>
</svg>
