<?xml version="1.0" standalone="no"?>
<!DOCTYPE svg PUBLIC "-//W3C//DTD SVG 1.1//EN" "http://www.w3.org/Graphics/SVG/1.1/DTD/svg11.dtd">
<svg xmlns="http://www.w3.org/2000/svg">
<defs >
<font id="Trispace" horiz-adv-x="1241" ><font-face
    font-family="Trispace Thin Light"
    units-per-em="2000"
    panose-1="0 0 0 0 0 0 0 0 0 0"
    ascent="1830"
    descent="-430"
    alphabetic="0" />
<glyph unicode=" " horiz-adv-x="1000" />
<glyph unicode="!" horiz-adv-x="1000" d="M452 399L426 1400H611L585 399H452ZM427 203H606V0H427V203Z" />
<glyph unicode="&quot;" horiz-adv-x="1300" d="M661 955L627 1400H800L767 955H661ZM781 955L747 1400H920L887 955H781Z" />
<glyph unicode="#" horiz-adv-x="1800" d="M1046 0L1208 1400H1345L1183 0H1046ZM176 378L191 500H1462L1447 378H176ZM385 0L547 1400H684L522 0H385ZM242 897L257 1019H1528L1513 897H242Z" />
<glyph unicode="$" horiz-adv-x="1300" d="M600 0V263H725V0H600ZM600 1159V1400H725V1159H600ZM655 184Q552 184 467 208T321 272T230 359L355 448Q370 419 398 394T465 350T554 319T661 308Q718 308 768 318T857 351T917 408T939 494Q939 554 894 588T776 642T618
673Q555 683 492 702T375 754T290 837T258 960Q258 1017 282 1061T347 1138T442 1190T554 1220T670 1230Q768 1230 846 1204T977 1137T1053 1055L930 975Q917 1004 891 1027T829 1069T752 1097T663 1107Q626 1107 581 1101T496 1078T430 1033T404 959Q404 905 441
873T542 821T683 789Q733 781 789 770T898 738T995 687T1063 611T1089 501Q1089 435 1065 384T999 295T901 233T783 196T655 184Z" />
<glyph unicode="%" horiz-adv-x="1300" d="M115 0L1010 1400H1137L242 0H115ZM924 10Q865 10 813 35T727 119T693 274Q693 370 726 427T812 510T924 536Q983 536 1036 511T1122 428T1155 274Q1155 177 1122 119T1036 36T924 10ZM924 103Q959 103 987 118T1032
171T1049 274Q1049 338 1033 375T988 428T924 443Q889 443 861 428T816 376T799 274Q799 209 816 172T861 119T924 103ZM337 850Q278 850 225 875T139 959T106 1114Q106 1210 139 1267T225 1350T337 1376Q396 1376 449 1351T535 1268T568 1114Q568 1017 535 959T449
876T337 850ZM337 943Q372 943 400 958T445 1011T462 1114Q462 1178 446 1215T401 1268T337 1283Q302 1283 274 1268T229 1216T213 1114Q213 1049 229 1012T273 959T337 943Z" />
<glyph unicode="&amp;" horiz-adv-x="1700" d="M738 -16Q584 -16 474 33T305 170T245 373Q245 463 285 531T391 653T539 748T702 826Q816 876 876 919T959 1011T982 1127Q982 1178 966 1211T924 1263T863 1290T793 1298Q758 1298 725 1289T666 1260T626 1209T611
1133Q611 1090 628 1044T670 953T720 874T763 815L1392 0H1232L669 728Q638 769 605 815T544 913T499 1020T481 1132Q481 1203 506 1255T576 1343T676 1395T794 1412Q857 1412 914 1396T1016 1346T1088 1256T1114 1124Q1114 1036 1074 965T955 834T765 727Q695
696 629 662T511 587T427 493T396 375Q396 322 418 274T483 187T591 127T742 104Q826 104 899 124T1032 183T1133 281T1198 415T1221 586H1360Q1360 476 1329 382T1242 215T1108 90T936 11T738 -16Z" />
<glyph unicode="&apos;" horiz-adv-x="1000" d="M480 955L446 1400H619L586 955H480Z" />
<glyph unicode="(" horiz-adv-x="1300" d="M883 -441Q855 -410 811 -353T717 -210T625 -8T555 256T527 588Q527 773 555 921T626 1185T719 1385T813 1526T886 1613L1001 1532Q983 1514 946 1466T864 1338T777 1148T709 898T681 588Q681 420 707 281T774 32T859
-158T941 -288T998 -360L883 -441Z" />
<glyph unicode=")" horiz-adv-x="1300" d="M427 -441L312 -360Q331 -339 368 -289T450 -158T535 32T602 281T628 588Q628 758 601 898T533 1148T446 1337T364 1465T309 1532L424 1613Q452 1582 496 1526T590 1386T683 1186T754 922T782 588Q782 405 755 257T684
-8T592 -209T499 -352T427 -441Z" />
<glyph unicode="*" horiz-adv-x="1300" d="M731 1037L575 1269L649 1328L823 1102L731 1037ZM465 1037L373 1102L547 1328L621 1269L465 1037ZM575 1269L300 1349L337 1458L598 1363L575 1269ZM598 1259Q574 1259 557 1274T539 1313Q539 1334 556 1351T598 1368Q622
1368 638 1351T655 1313Q655 1290 639 1275T598 1259ZM547 1328L540 1600H658L649 1328H547ZM621 1269L598 1363L858 1458L895 1349L621 1269Z" />
<glyph unicode="+" horiz-adv-x="1300" d="M541 225V989H671V225H541ZM223 543V673H987V543H223Z" />
<glyph unicode="," horiz-adv-x="1000" d="M437 -234L370 -144Q394 -134 417 -118T456 -72T472 5L588 0Q588 -69 563 -116T503 -192T437 -234ZM394 0V203H588V0H394Z" />
<glyph unicode="-" horiz-adv-x="1300" d="M357 543V673H942V543H357Z" />
<glyph unicode="." horiz-adv-x="1000" d="M393 203H572V0H393V203Z" />
<glyph unicode="/" horiz-adv-x="817" d="M96 -284L594 1600H735L237 -284H96Z" />
<glyph unicode="0" horiz-adv-x="1300" d="M649 -22Q561 -22 479 15T333 134T230 355T192 696Q192 898 230 1035T332 1256T479 1375T649 1412Q732 1412 813 1376T960 1256T1065 1036T1105 696Q1105 493 1066 355T960 135T813 15T649 -22ZM649 100Q710 100 763
133T857 237T923 422T947 696Q947 855 923 968T858 1152T763 1256T649 1290Q588 1290 534 1257T438 1152T374 968T350 696Q350 536 373 423T438 238T533 133T649 100Z" />
<glyph unicode="1" horiz-adv-x="1300" d="M255 0V123H583V1255L259 1171V1309L604 1400H737V123H1064V0H255Z" />
<glyph unicode="2" horiz-adv-x="1300" d="M175 0V121Q203 141 253 181T368 279T502 403T636 547T755 701T839 857T870 1007Q870 1085 849 1138T792 1223T708 1270T607 1285Q536 1285 477 1255T376 1172T318 1050L181 1116Q210 1213 273 1279T424 1378T610 1412Q697
1412 773 1390T906 1321T996 1196T1028 1007Q1028 916 987 819T879 627T735 446T585 291T458 178T386 122H1029V0H175Z" />
<glyph unicode="3" horiz-adv-x="1300" d="M638 -22Q519 -22 426 13T271 109T181 247L321 321Q339 261 381 212T487 135T639 106Q725 106 796 143T909 256T952 443Q952 526 929 584T867 680T778 734T677 751Q649 751 620 746T563 731T509 711L413 807L873 1277H248V1400H1062V1277L612
827Q635 840 675 847T752 855Q814 855 876 832T990 758T1073 630T1105 443Q1105 328 1069 241T969 96T820 8T638 -22Z" />
<glyph unicode="4" horiz-adv-x="1300" d="M743 0V327H160V450L644 1400H896V450H1117V327H896V0H743ZM317 450H743V1287H742L317 450Z" />
<glyph unicode="5" horiz-adv-x="1300" d="M604 -22Q485 -22 397 16T252 115T169 246L306 317Q320 270 356 221T454 139T608 106Q696 106 765 148T875 271T915 470Q915 578 874 652T766 763T627 801Q559 801 499 778T395 711T330 603L259 650Q272 715 309 767T400
855T522 910T660 929Q763 929 856 880T1008 730T1067 472Q1067 352 1032 260T933 105T785 10T604 -22ZM330 603L197 645L287 1400H997V1277H411L330 603Z" />
<glyph unicode="6" horiz-adv-x="1300" d="M613 -22Q512 -22 427 18T279 140T180 351T145 656Q145 828 186 967T300 1206T472 1359T689 1413Q781 1413 843 1388T941 1330T989 1274L892 1179Q881 1197 856 1222T789 1266T682 1286Q603 1286 534 1243T412 1116T330
914T300 645Q300 499 323 397T389 230T488 135T614 105Q698 105 766 148T874 273T914 473Q914 590 876 663T774 770T636 805Q582 805 528 784T427 721T348 617T307 473L213 525Q227 623 271 698T378 826T515 904T663 931Q777 931 867 880T1011 728T1065 477Q1065
364 1033 272T941 115T798 14T613 -22Z" />
<glyph unicode="7" horiz-adv-x="1300" d="M554 0Q554 137 574 287T630 586T713 869T815 1109T928 1277H250V1400H1089V1277Q1025 1202 969 1095T867 857T786 583T734 291T716 0H554Z" />
<glyph unicode="8" horiz-adv-x="1300" d="M646 -22Q522 -22 416 21T246 155T181 384Q181 494 224 571T337 696T488 766T646 788Q719 788 799 766T950 697T1064 572T1108 384Q1108 245 1044 155T874 22T646 -22ZM646 105Q723 105 793 134T908 226T953 389Q953
492 909 555T794 648T646 677Q568 677 498 647T382 552T337 389Q337 289 381 227T497 135T646 105ZM646 686Q577 686 505 709T371 777T272 892T234 1055Q234 1145 267 1212T359 1324T491 1391T646 1414Q724 1414 797 1392T928 1324T1021 1212T1056 1055Q1056 962
1019 893T920 778T787 709T646 686ZM646 797Q764 797 835 866T907 1049Q907 1113 883 1158T820 1231T735 1273T646 1287Q599 1287 553 1274T469 1232T407 1158T383 1049Q383 935 458 866T646 797Z" />
<glyph unicode="9" horiz-adv-x="1300" d="M565 -23Q473 -23 411 2T314 61T265 116L362 211Q373 194 398 169T465 124T572 104Q651 104 720 147T842 274T924 476T954 745Q954 891 931 993T865 1160T766 1255T640 1285Q556 1285 488 1242T380 1117T340 917Q340
801 378 728T480 620T618 585Q672 585 726 606T828 670T907 775T950 920L1041 865Q1027 767 983 692T876 564T739 486T591 459Q478 459 387 510T243 662T189 913Q189 1026 221 1118T313 1275T456 1376T641 1412Q742 1412 827 1372T975 1250T1074 1039T1109 734Q1109
562 1068 423T954 184T782 31T565 -23Z" />
<glyph unicode=":" horiz-adv-x="1000" d="M367 1000H546V797H367V1000ZM623 203H802V0H623V203Z" />
<glyph unicode=";" horiz-adv-x="1000" d="M387 999H566V796H387V999ZM666 -234L599 -144Q623 -134 646 -118T685 -72T701 5L817 0Q817 -69 792 -116T732 -192T666 -234ZM623 0V203H817V0H623Z" />
<glyph unicode="&lt;" horiz-adv-x="1300" d="M962 1074L1031 970L353 491V563L1031 84L962 -20L282 461V593L962 1074Z" />
<glyph unicode="=" horiz-adv-x="1300" d="M215 727V857H979V727H215ZM215 359V489H979V359H215Z" />
<glyph unicode="&gt;" horiz-adv-x="1300" d="M253 -20L183 84L862 563V491L183 970L253 1074L933 593V461L253 -20Z" />
<glyph unicode="?" horiz-adv-x="1300" d="M500 375V433Q500 504 519 561T571 667T643 757T720 835Q759 873 793 910T848 986T869 1071Q869 1132 846 1173T784 1238T699 1272T608 1283Q554 1283 503 1268T408 1226T332 1161T282 1077L154 1149Q179 1219 244 1278T403
1375T605 1412Q687 1412 762 1394T895 1337T988 1234T1022 1076Q1022 1011 996 959T928 862T839 773Q789 726 744 676T669 566T640 428V375H500ZM481 203H660V0H481V203Z" />
<glyph unicode="@" horiz-adv-x="1700" d="M738 -18Q650 -18 562 3T395 69T255 186T159 362T124 602Q124 753 164 879T280 1105T458 1272T689 1376T960 1412Q1086 1412 1197 1377T1394 1269T1527 1082T1576 808Q1576 705 1549 610T1470 439T1346 319T1182 275Q1127
275 1086 292T1022 345T995 433Q986 404 958 373T886 321T785 300Q735 300 690 317T609 373T553 472T532 620Q532 723 557 809T631 960T752 1059T919 1094Q967 1094 1008 1087T1080 1070T1129 1050Q1121 968 1112 878T1094 707T1080 568T1075 493Q1075 451 1085
423T1118 380T1181 365Q1248 365 1298 404T1380 509T1429 651T1446 803Q1446 918 1414 1009T1318 1164T1163 1261T952 1295Q831 1295 726 1265T534 1176T386 1035T290 845T257 614Q257 491 291 396T390 234T551 133T767 99Q879 99 938 122T1017 158L1078 53Q1064
44 1021 27T908 -4T738 -18ZM811 412Q859 412 893 438T947 508T974 606Q975 616 979 654T989 748T1000 862T1011 969Q1002 972 973 977T900 982Q833 982 787 953T713 873T673 759T660 627Q660 555 674 512T710 448T759 419T811 412Z" />
<glyph unicode="A" horiz-adv-x="1300" d="M1170 0H1008L908 372H396L296 0H134L518 1400H786L1170 0ZM638 1277L423 495H881L666 1277H638Z" />
<glyph unicode="B" horiz-adv-x="1300" d="M241 0V1400H684Q734 1400 788 1392T892 1363T983 1304T1046 1206T1070 1058Q1070 958 1034 889T948 781T859 733Q895 729 940 709T1029 648T1101 545T1130 393Q1130 268 1085 180T956 46T752 0H241ZM395 123H713Q789
123 848 152T940 243T974 401Q974 500 933 556T830 637T712 661H395V123ZM395 783H675Q735 783 790 813T880 900T915 1041Q915 1113 897 1159T845 1231T765 1267T663 1277H395V783Z" />
<glyph unicode="C" horiz-adv-x="1300" d="M703 -22Q617 -22 535 3T380 83T252 222T165 424T134 696Q134 850 166 967T253 1169T382 1307T539 1386T708 1412Q790 1412 859 1389T984 1324T1081 1229T1149 1111L1011 1042Q993 1086 967 1129T904 1208T819 1265T708
1287Q632 1287 559 1253T425 1148T330 965T294 696Q294 539 329 427T423 243T555 137T702 103Q765 103 814 125T901 183T966 260T1011 341L1149 271Q1123 212 1082 159T984 66T858 2T703 -22Z" />
<glyph unicode="D" horiz-adv-x="1300" d="M220 0V1400H558Q628 1400 698 1388T833 1347T955 1266T1054 1137T1121 952T1145 700Q1145 557 1121 449T1055 263T956 135T834 54T698 12T558 0H220ZM374 123H547Q634 123 712 149T853 240T950 417T986 700Q986 871
951 983T853 1159T713 1250T547 1277H374V123Z" />
<glyph unicode="E" horiz-adv-x="1300" d="M248 0V1400H1097V1277H402V749H1015V627H402V123H1097V0H248Z" />
<glyph unicode="F" horiz-adv-x="1300" d="M290 0V1400H1096V1277H444V684H1004V561H444V0H290Z" />
<glyph unicode="G" horiz-adv-x="1300" d="M696 -22Q621 -22 542 1T389 74T258 208T165 412T131 696Q131 856 164 975T255 1178T384 1313T536 1388T694 1412Q785 1412 861 1390T996 1328T1092 1238T1147 1130L1002 1066Q991 1109 966 1148T901 1219T810 1268T691
1287Q633 1287 575 1266T466 1199T374 1085T311 919T288 696Q288 536 324 424T421 240T553 136T697 103Q768 103 830 130T941 216T1016 366T1043 589H687V713H1193V619Q1193 478 1166 372T1091 191T980 69T845 0T696 -22Z" />
<glyph unicode="H" horiz-adv-x="1300" d="M193 0V1400H347V789H949V1400H1103V0H949V667H347V0H193Z" />
<glyph unicode="I" horiz-adv-x="1300" d="M280 0V123H572V1277H280V1400H1020V1277H726V123H1020V0H280Z" />
<glyph unicode="J" horiz-adv-x="1300" d="M600 -22Q506 -22 427 9T289 109T198 287T166 557H320Q320 402 352 303T447 155T600 106Q692 106 754 154T847 302T879 557V1277H322V1400H1033V543Q1033 390 1002 283T912 108T775 9T600 -22Z" />
<glyph unicode="K" horiz-adv-x="1300" d="M220 0V1400H374V779H475L897 1400H1065L574 682V756L1093 0H924L474 657H374V0H220Z" />
<glyph unicode="L" horiz-adv-x="1000" d="M163 0V1400H318V123H880V0H163Z" />
<glyph unicode="M" horiz-adv-x="1700" d="M815 115L868 346L1191 1400H1284L1279 1255L922 115H815ZM147 0L303 1400H447L307 0H147ZM774 115L418 1255L415 1400H506L829 346L879 115H774ZM1390 0L1250 1400H1394L1549 0H1390Z" />
<glyph unicode="N" horiz-adv-x="1300" d="M174 0V1400H401L985 142H961V1400H1115V0H913L321 1254H328V0H174Z" />
<glyph unicode="O" horiz-adv-x="1300" d="M649 -22Q564 -22 483 3T332 83T209 223T127 425T97 696Q97 848 126 965T209 1167T332 1306T483 1386T649 1412Q733 1412 813 1387T964 1307T1086 1168T1169 966T1199 696Q1199 543 1169 426T1087 223T964 84T814 4T649
-22ZM649 103Q722 103 792 137T918 242T1007 426T1041 696Q1041 852 1008 964T918 1147T792 1253T649 1287Q575 1287 505 1253T379 1148T289 964T255 696Q255 539 288 427T378 243T505 137T649 103Z" />
<glyph unicode="P" horiz-adv-x="1300" d="M257 0V1400H628Q681 1400 744 1390T870 1353T984 1275T1067 1143T1099 942Q1099 823 1068 741T985 605T870 523T744 483T628 472H411V0H257ZM411 595H616Q662 595 718 606T825 653T909 757T942 942Q942 1057 909 1124T825
1225T718 1267T616 1277H411V595Z" />
<glyph unicode="Q" horiz-adv-x="1300" d="M584 -301V0H717V-210L687 -180H1095V-301H584ZM649 -22Q564 -22 483 3T332 83T209 223T127 425T97 696Q97 848 126 965T209 1167T332 1306T483 1386T649 1412Q733 1412 813 1387T964 1307T1086 1168T1169 966T1199 696Q1199
543 1169 426T1087 223T964 84T814 4T649 -22ZM649 103Q722 103 792 137T918 242T1007 426T1041 696Q1041 852 1008 964T918 1147T792 1253T649 1287Q575 1287 505 1253T379 1148T289 964T255 696Q255 539 288 427T378 243T505 137T649 103Z" />
<glyph unicode="R" horiz-adv-x="1300" d="M246 0V1400H726Q777 1400 831 1390T935 1355T1024 1288T1087 1182T1111 1029Q1111 940 1087 875T1022 765T932 693T830 654T731 642H400V0H246ZM971 0L693 688L846 705L1136 0H971ZM400 762H703Q768 762 825 788T919
872T956 1025Q956 1125 918 1179T820 1255T696 1277H400V762Z" />
<glyph unicode="S" horiz-adv-x="1300" d="M656 -22Q537 -22 436 11T262 106T155 257L304 325Q331 257 383 208T506 132T664 105Q760 105 831 137T942 229T982 368Q982 430 950 477T864 560T745 619T612 659Q520 681 445 714T314 795T230 909T200 1062Q200 1132
226 1188T297 1286T402 1356T530 1398T669 1412Q778 1412 871 1381T1028 1293T1119 1165L972 1098Q949 1159 906 1200T801 1263T664 1285Q606 1285 552 1271T455 1229T387 1161T362 1066Q362 988 402 935T512 848T671 792Q739 775 807 752T935 697T1043 620T1117
516T1144 380Q1144 299 1119 235T1048 122T941 42T807 -6T656 -22Z" />
<glyph unicode="T" horiz-adv-x="1300" d="M572 0V1277H150V1400H1148V1277H726V0H572Z" />
<glyph unicode="U" horiz-adv-x="1300" d="M652 -22Q554 -22 468 10T315 110T212 288T175 552V1400H329V559Q329 406 368 306T480 156T652 106Q752 106 824 155T934 305T973 559V1400H1127V552Q1127 398 1091 289T989 111T838 10T652 -22Z" />
<glyph unicode="V" horiz-adv-x="1300" d="M505 0L130 1400H291L628 123H635L971 1400H1132L758 0H505Z" />
<glyph unicode="W" horiz-adv-x="1700" d="M1131 0L851 1187L827 1389H926L1230 117L1223 0H1131ZM367 0L105 1400H268L481 122L496 0H367ZM472 0L468 117L774 1389H873L851 1187L568 0H472ZM1199 0L1216 122L1432 1400H1595L1332 0H1199Z" />
<glyph unicode="X" horiz-adv-x="1300" d="M149 0L482 689L149 1400H322L619 753H657L969 1400H1142L795 689L1142 0H969L656 631H620L322 0H149Z" />
<glyph unicode="Y" horiz-adv-x="1300" d="M564 0V533L145 1400H307L641 680L973 1400H1135L718 533V0H564Z" />
<glyph unicode="Z" horiz-adv-x="1300" d="M217 0V123L908 1277H233V1400H1068V1277L377 123H1083V0H217Z" />
<glyph unicode="[" horiz-adv-x="1300" d="M506 -407V1607H975V1477H660V-277H975V-407H506Z" />
<glyph unicode="\" horiz-adv-x="817" d="M594 -284L96 1600H237L735 -284H594Z" />
<glyph unicode="]" horiz-adv-x="1300" d="M803 -407H334V-277H649V1477H334V1607H803V-407Z" />
<glyph unicode="^" horiz-adv-x="1300" d="M356 1120L553 1600H739L936 1120H804L657 1486H635L488 1120H356Z" />
<glyph unicode="_" horiz-adv-x="1300" d="M-4 -263V-133H1304V-263H-4Z" />
<glyph unicode="`" horiz-adv-x="1300" d="M656 1131L341 1408H522L808 1131H656Z" />
<glyph unicode="a" horiz-adv-x="1300" d="M567 -22Q481 -22 410 -1T287 62T207 164T179 303Q179 368 202 419T266 507T359 568T470 604T588 616Q663 616 725 600T832 560T895 513V678Q895 741 871 783T807 851T716 887T611 898Q560 898 512 887T423 860T349 824T295
786L221 903Q256 932 315 959T453 1005T624 1024Q682 1024 742 1014T857 981T955 920T1024 828T1049 699V123H1204V0H920L907 130Q888 97 843 62T729 3T567 -22ZM601 100Q685 100 744 126T841 187T895 250V394Q875 422 830 448T727 491T611 509Q541 509 477 489T372
424T331 309Q331 238 364 192T458 123T601 100Z" />
<glyph unicode="b" horiz-adv-x="1300" d="M248 0V1500H402V231L387 0H248ZM718 -22Q625 -22 553 16T431 117T355 254T329 397L398 419Q404 361 426 306T483 205T568 133T679 106Q759 106 828 148T941 278T984 502Q984 640 943 726T834 853T687 894Q625 894 576
869T489 803T429 710T396 605L331 626Q331 693 358 762T436 891T561 986T728 1022Q830 1022 924 968T1078 799T1138 502Q1138 366 1102 267T1005 104T870 9T718 -22Z" />
<glyph unicode="c" horiz-adv-x="1300" d="M704 -22Q638 -22 571 -3T441 55T330 157T253 304T224 502Q224 615 252 701T330 848T441 948T570 1005T704 1024Q783 1024 848 1004T965 948T1050 870T1102 782L963 717Q950 759 918 801T832 872T707 900Q652 900 596
878T492 807T415 683T386 502Q386 398 415 323T491 198T595 126T707 102Q780 102 832 130T917 199T962 280L1102 214Q1086 174 1052 132T967 56T849 0T704 -22Z" />
<glyph unicode="d" horiz-adv-x="1300" d="M541 -22Q465 -22 391 9T255 104T158 267T121 502Q121 683 181 798T335 968T531 1022Q624 1022 697 986T822 891T901 763T928 626L863 605Q853 658 830 709T770 802T684 869T573 894Q494 894 426 854T317 727T275 502Q275
366 318 279T430 149T580 106Q641 106 690 133T776 205T833 305T861 419L930 397Q930 328 904 254T828 118T706 17T541 -22ZM1011 1500V54L942 124H1176V0H872L857 212V1500H1011Z" />
<glyph unicode="e" horiz-adv-x="1300" d="M652 -22Q566 -22 480 8T323 102T209 265T166 502Q166 640 209 739T324 901T482 994T656 1024Q747 1024 832 995T984 907T1090 761T1129 557Q1129 540 1128 518T1123 481H288V587H964Q964 594 964 596T964 606Q964 700
921 766T808 866T657 901Q600 901 542 879T434 810T356 686T326 503Q326 369 374 280T499 147T659 102Q739 102 799 127T897 190T948 266L1092 193Q1072 153 1033 115T938 46T810 -3T652 -22Z" />
<glyph unicode="f" horiz-adv-x="1000" d="M356 0V1125Q356 1241 389 1317T479 1437T601 1499T734 1518Q805 1518 850 1506T922 1478V1353Q897 1368 858 1381T753 1395Q711 1395 668 1384T589 1343T532 1256T510 1103V0H356ZM83 877V1000H909V877H83Z" />
<glyph unicode="g" horiz-adv-x="1300" d="M654 -423Q554 -423 478 -396T349 -321T269 -215T242 -94H396Q396 -119 409 -153T453 -220T534 -275T657 -297Q754 -297 818 -251T913 -124T944 55V785L950 1000H1098V73Q1098 -21 1079 -98T1021 -235T929 -338T806 -401T654
-423ZM631 -22Q555 -22 481 9T345 104T248 267T211 502Q211 683 271 798T425 968T621 1022Q714 1022 787 986T912 891T991 763T1018 626L953 605Q943 658 920 709T860 802T774 869T663 894Q584 894 516 854T407 727T365 502Q365 366 408 279T520 149T670 106Q731
106 780 133T866 205T923 305T951 419L1020 397Q1020 328 994 254T918 118T796 17T631 -22Z" />
<glyph unicode="h" horiz-adv-x="1300" d="M252 0V1500H406V0H252ZM915 0V568Q915 684 891 756T816 861T687 895Q632 895 582 873T492 810T428 718T401 604L348 616Q348 694 373 766T446 897T566 989T732 1023Q811 1023 873 999T979 923T1046 789T1069 591V0H915Z" />
<glyph unicode="i" horiz-adv-x="1000" d="M96 0V123H437V877H143V1000H591V123H918V0H96ZM431 1411H596V1208H431V1411Z" />
<glyph unicode="j" horiz-adv-x="1000" d="M106 -400V-272H179Q256 -272 317 -250T421 -185T487 -76T510 78V877H136V1000H664V52Q664 -61 629 -145T530 -287T381 -372T195 -400H106ZM502 1411H667V1208H502V1411Z" />
<glyph unicode="k" horiz-adv-x="1300" d="M298 0V1500H452V583H587V461H452V0H298ZM936 0L463 527L618 558L1125 0H936ZM618 498L475 544L933 1000H1122L618 498Z" />
<glyph unicode="l" horiz-adv-x="1000" d="M85 0V123H410V1377H151V1500H565V123H899V0H85Z" />
<glyph unicode="m" horiz-adv-x="1700" d="M1408 0V603Q1408 749 1357 822T1189 895Q1116 895 1054 855T952 749T909 610L839 620Q839 695 869 766T952 896T1079 988T1240 1023Q1346 1023 1417 982T1525 854T1562 625V0H1408ZM106 0V1000H249L260 789V0H106ZM756
0V603Q756 749 705 822T537 895Q464 895 402 855T302 749T259 610L189 620Q190 695 220 766T304 896T430 988T588 1023Q748 1023 829 934T910 660V0H756Z" />
<glyph unicode="n" horiz-adv-x="1300" d="M245 0V1000H385L399 798V0H245ZM909 0V568Q909 684 885 756T810 861T681 895Q626 895 576 873T486 810T422 718T395 604L342 616Q342 694 367 766T440 897T560 989T726 1023Q805 1023 867 999T974 923T1041 789T1064
591V0H909Z" />
<glyph unicode="o" horiz-adv-x="1300" d="M655 -22Q591 -22 524 -5T394 51T281 150T202 299T173 502Q173 617 202 704T281 852T393 951T523 1006T655 1024Q720 1024 787 1007T917 951T1030 852T1109 704T1138 502Q1138 386 1109 299T1030 151T918 51T788 -4T655
-22ZM655 102Q708 102 764 121T869 187T949 310T980 502Q980 615 949 691T869 814T764 880T655 900Q603 900 547 880T442 814T362 692T331 502Q331 387 362 310T441 187T546 122T655 102Z" />
<glyph unicode="p" horiz-adv-x="1300" d="M219 -400V1000H359L373 841V-400H219ZM689 -22Q596 -22 524 16T402 117T326 254T300 397L369 419Q375 361 396 306T454 205T539 133T650 106Q730 106 799 148T912 278T955 502Q955 640 914 726T804 853T657 894Q596
894 547 869T460 803T400 710T367 605L302 626Q302 693 329 762T407 891T532 986T699 1022Q801 1022 895 968T1049 799T1109 502Q1109 366 1073 267T975 104T840 9T689 -22Z" />
<glyph unicode="q" horiz-adv-x="1300" d="M1039 -400H885V841L899 1000H1039V-400ZM569 -22Q493 -22 419 9T283 104T186 267T149 502Q149 683 209 798T363 968T559 1022Q652 1022 725 986T850 891T929 763T956 626L891 605Q881 658 858 709T798 802T712 869T601
894Q522 894 454 854T345 727T303 502Q303 366 346 279T458 149T608 106Q669 106 718 133T804 205T861 305T889 419L958 397Q958 328 932 254T856 118T734 17T569 -22Z" />
<glyph unicode="r" horiz-adv-x="1300" d="M256 0V123H475V877H256V1000H604L629 749V123H877V0H256ZM626 583L555 607Q557 671 581 732T647 846T742 938T861 1001T995 1024Q1059 1024 1093 1013T1139 995L1101 859Q1091 867 1059 876T975 886Q914 886 856 860T750
790T669 692T626 583Z" />
<glyph unicode="s" horiz-adv-x="1300" d="M646 -22Q543 -22 458 2T313 66T221 153L347 242Q362 213 390 188T457 144T546 113T653 102Q709 102 759 112T848 145T909 202T931 288Q931 348 886 382T767 436T610 467Q546 477 483 496T366 548T281 631T249 754Q249
811 273 855T339 932T433 984T545 1014T661 1024Q759 1024 837 998T968 931T1044 849L922 769Q908 798 882 821T821 863T743 891T654 901Q617 901 572 895T488 872T422 827T396 753Q396 699 433 667T534 615T674 583Q724 575 780 564T890 532T986 481T1055 405T1081
295Q1081 229 1057 178T990 89T893 27T774 -10T646 -22Z" />
<glyph unicode="t" horiz-adv-x="1300" d="M409 279V1317H564V284Q564 213 585 171T642 111T723 92Q769 92 808 110T872 171T896 288H1027Q1027 204 1001 146T930 51T828 -2T708 -19Q643 -19 589 -3T495 50T432 143T409 279ZM151 877V1000H1033V877H151Z" />
<glyph unicode="u" horiz-adv-x="1300" d="M551 -23Q473 -23 410 1T304 77T237 211T214 409V1000H368V432Q368 316 392 244T467 139T596 105Q651 105 701 127T791 190T855 282T882 396L935 384Q935 306 910 234T837 103T717 11T551 -23ZM901 0L877 203V1000H1031V81L995
123H1151V0H901Z" />
<glyph unicode="v" horiz-adv-x="1300" d="M519 0L162 1000H327L634 130H654L961 1000H1126L769 0H519Z" />
<glyph unicode="w" horiz-adv-x="1700" d="M1118 0L817 1000H937L1239 0H1118ZM372 0L165 1000H321L508 0H372ZM462 0L763 1000H884L583 0H462ZM1192 0L1380 1000H1536L1328 0H1192Z" />
<glyph unicode="x" horiz-adv-x="1300" d="M151 0L522 501L151 1000H328L651 563H643L967 1000H1144L772 501L1144 0H967L643 440H651L328 0H151Z" />
<glyph unicode="y" horiz-adv-x="1300" d="M441 -400L615 39L652 -8H560L179 1000H341L671 97H639L964 1000H1123L597 -400H441Z" />
<glyph unicode="z" horiz-adv-x="1300" d="M228 0V123L837 877H244V1000H1013V877L409 123H1018V0H228Z" />
<glyph unicode="{" horiz-adv-x="1300" d="M347 594V663H357Q423 663 459 693T510 781T525 916V1257Q525 1346 550 1413T623 1527T739 1597T895 1621H949V1498H918Q842 1498 787 1473T702 1386T672 1220V849Q672 761 647 710T585 633T510 601T446 594H347ZM895
-427Q808 -427 740 -404T624 -334T551 -219T525 -63V278Q525 357 511 413T460 500T357 531H347V600H446Q472 600 509 593T584 562T647 486T672 346V-25Q672 -131 702 -191T787 -277T918 -303H949V-427H895Z" />
<glyph unicode="|" horiz-adv-x="1300" d="M584 -360V1600H715V-360H584Z" />
<glyph unicode="}" horiz-adv-x="1300" d="M951 594H851Q825 594 788 601T713 633T650 709T625 849V1220Q625 1325 595 1386T510 1472T379 1498H348V1621H402Q489 1621 558 1598T674 1528T746 1414T772 1257V916Q772 838 786 781T837 694T940 663H951V594ZM402
-427H348V-303H379Q455 -303 510 -278T595 -192T625 -25V346Q625 435 650 486T712 561T787 593T851 600H951V531H940Q874 531 838 501T787 414T772 278V-63Q772 -151 747 -219T674 -333T558 -403T402 -427Z" />
<glyph unicode="~" horiz-adv-x="1300" d="M723 657Q669 657 634 676T571 720T516 764T450 783Q395 783 355 751T296 689L205 766Q210 775 229 796T279 841T352 881T447 897Q501 897 536 878T599 834T654 789T720 769Q775 769 814 801T870 865L961 786Q957 776
938 755T889 712T817 673T723 657Z" />
<glyph unicode="&#xa0;" horiz-adv-x="1000" />
<glyph unicode="&#xa1;" horiz-adv-x="1000" d="M554 601L580 -400H395L422 601H554ZM579 797H400V1000H579V797Z" />
<glyph unicode="&#xa2;" horiz-adv-x="1300" d="M660 170Q563 170 476 198T321 289T213 451T173 694Q173 839 212 939T320 1100T476 1188T660 1216Q787 1216 890 1161T1064 981L928 910Q902 958 867 998T779 1063T651 1088Q587 1088 529 1066T427 997T357 874T331
694Q331 590 356 515T426 392T529 321T651 298Q724 298 779 320T872 379T932 457L1069 386Q1023 312 961 265T822 194T660 170ZM579 0V227H713V0H579ZM579 1160V1400H713V1160H579Z" />
<glyph unicode="&#xa3;" horiz-adv-x="1300" d="M110 635V757H885V635H110ZM321 78L195 96Q226 120 255 160T309 252T347 362T362 481Q362 553 346 619T309 749Q289 811 274 875T259 1010Q259 1101 291 1175T383 1302T523 1383T697 1412Q801 1412 874 1384T994
1311T1070 1218L951 1145Q930 1179 898 1210T817 1262T697 1283Q648 1283 599 1270T510 1224T445 1136T420 999Q420 942 433 885T463 769Q482 706 497 639T513 498Q513 401 490 319T424 174T321 78ZM253 -22L195 96Q197 96 210 96T243 94T285 93T325 91Q350 105
383 117T460 138T560 146Q608 146 644 139T714 121Q744 112 774 106T843 99Q896 99 941 108T1011 127L1051 0Q1025 -8 968 -17T843 -26Q792 -26 748 -18T661 1Q624 12 588 18T512 24Q458 24 403 15T306 -6T253 -22Z" />
<glyph unicode="&#xa4;" horiz-adv-x="1300" d="M661 338Q590 338 519 358T388 425T294 549T259 740Q259 854 294 931T388 1054T518 1120T661 1140Q732 1140 803 1120T932 1054T1026 931T1062 740Q1062 626 1027 549T933 426T803 359T661 338ZM262 255L179 343L351
511L436 427L262 255ZM1062 257L889 429L974 512L1146 345L1062 257ZM661 467Q697 467 741 476T825 513T892 595T919 740Q919 830 893 884T826 965T741 1001T661 1011Q625 1011 581 1002T495 965T428 884T402 740Q402 650 428 595T495 513T580 477T661 467ZM351
972L179 1139L262 1227L436 1055L351 972ZM974 970L889 1054L1062 1225L1146 1138L974 970Z" />
<glyph unicode="&#xa5;" horiz-adv-x="1300" d="M276 530V642H1005V530H276ZM276 254V366H1005V254H276ZM564 0V533L145 1400H307L641 680L973 1400H1135L718 533V0H564Z" />
<glyph unicode="&#xa6;" horiz-adv-x="1300" d="M528 906V1600H662V906H528ZM528 -360V326H662V-360H528Z" />
<glyph unicode="&#xa7;" horiz-adv-x="1300" d="M575 -218Q463 -218 373 -192T222 -118T138 -11L265 52Q283 10 324 -23T429 -77T575 -98Q637 -98 691 -88T787 -56T851 2T875 91Q875 127 857 156T809 210T741 253T662 285T583 306Q534 316 481 331T377 369T285
426T220 509T195 621Q195 687 230 734T322 814T445 867T573 896L686 811Q678 813 671 813T651 813Q620 813 580 807T498 788T421 753T364 701T342 629Q342 585 365 550T427 490T511 448T601 423Q639 415 692 401T802 362T908 300T988 211T1019 90Q1019 22 995 -29T929
-116T830 -175T709 -208T575 -218ZM719 300L589 359Q626 363 666 374T745 404T815 447T864 505T883 576Q883 616 864 648T814 704T743 747T662 777T582 796Q544 802 497 817T403 858T317 921T254 1008T230 1123Q230 1184 253 1231T315 1313T406 1369T514 1401T627
1412Q729 1412 812 1387T951 1316T1028 1212L898 1149Q878 1197 841 1228T749 1275T625 1291Q578 1291 533 1283T452 1256T395 1203T373 1119Q373 1074 393 1040T448 982T523 942T603 919Q640 912 694 898T805 858T913 796T995 706T1027 583Q1027 526 1004 482T944
406T865 353T784 318T719 300Z" />
<glyph unicode="&#xa8;" horiz-adv-x="1300" d="M328 1351H492V1147H328V1351ZM771 1351H936V1147H771V1351Z" />
<glyph unicode="&#xa9;" horiz-adv-x="1300" d="M640 111Q572 111 497 129T352 189T225 299T135 465T101 698Q101 831 134 929T225 1095T352 1204T497 1264T640 1283Q707 1283 781 1265T926 1205T1052 1095T1143 929T1177 698Q1177 564 1143 466T1053 299T926
190T782 130T640 111ZM659 388Q584 388 517 418T407 515T364 696Q364 810 406 877T516 974T659 1004Q726 1004 773 981T847 924T886 861L799 822Q785 859 746 886T655 913Q597 913 555 886T490 810T466 696Q466 632 489 584T555 508T655 480Q707 480 742 504T795
556L883 516Q869 486 838 456T761 407T659 388ZM640 211Q702 211 763 228T878 282T975 375T1042 513T1066 698Q1066 802 1042 882T976 1019T879 1112T763 1165T640 1183Q577 1183 515 1166T399 1112T301 1019T234 882T209 698Q209 593 233 513T301 376T398 282T515
229T640 211Z" />
<glyph unicode="&#xaa;" horiz-adv-x="1000" d="M432 1060Q340 1060 289 1100T237 1211Q237 1244 253 1270T298 1316T366 1344T454 1353Q507 1353 546 1340T602 1314V1341Q602 1390 561 1412T463 1434Q414 1434 367 1422T299 1399L266 1473Q293 1486 347 1499T472
1512Q528 1512 580 1496T667 1444T701 1352V1145H767V1069H615L607 1121Q597 1109 574 1095T515 1070T432 1060ZM453 1135Q507 1135 545 1153T598 1188V1251Q581 1263 546 1274T469 1286Q408 1286 373 1267T338 1211Q338 1173 368 1154T453 1135Z" />
<glyph unicode="&#xab;" horiz-adv-x="1300" d="M575 171L135 535L196 640L647 248L575 171ZM135 535V639H193V535H135ZM196 536L135 639L575 1003L647 926L196 536ZM1090 171L650 535L711 640L1162 248L1090 171ZM650 535V639H708V535H650ZM711 536L650 639L1090
1003L1162 926L711 536Z" />
<glyph unicode="&#xac;" horiz-adv-x="1300" d="M841 302V673H970V302H841ZM337 543V673H922V543H337Z" />
<glyph unicode="&#xad;" horiz-adv-x="1300" d="M420 543V673H849V543H420Z" />
<glyph unicode="&#xae;" horiz-adv-x="1300" d="M635 409Q547 409 460 435T300 520T183 673T139 905Q139 1042 183 1136T299 1289T459 1373T635 1399Q722 1399 809 1373T968 1289T1084 1137T1128 905Q1128 769 1085 674T969 521T809 436T635 409ZM751 648L635
883L709 890L836 648H751ZM635 495Q704 495 774 515T902 583T996 709T1031 905Q1031 1022 996 1100T903 1226T774 1293T635 1313Q565 1313 495 1293T366 1226T271 1101T235 905Q235 788 270 709T365 583T494 516T635 495ZM479 648V1164H659Q690 1164 725 1153T785
1110T811 1014Q811 948 781 916T714 874T654 864H558V648H479ZM558 931H642Q682 931 707 951T733 1015Q733 1059 708 1077T642 1096H558V931Z" />
<glyph unicode="&#xaf;" horiz-adv-x="1300" d="M278 1302V1417H920V1302H278Z" />
<glyph unicode="&#xb0;" horiz-adv-x="1000" d="M527 1061Q464 1061 413 1091T331 1173T300 1288Q300 1350 330 1401T412 1482T527 1513Q589 1513 640 1483T721 1401T751 1288Q751 1225 721 1174T640 1092T527 1061ZM527 1163Q579 1163 614 1199T650 1288Q650
1340 615 1375T527 1411Q474 1411 438 1376T402 1288Q402 1235 438 1199T527 1163Z" />
<glyph unicode="&#xb1;" horiz-adv-x="1300" d="M198 692V800H1012V692H198ZM198 196V304H1012V196H198ZM539 438V1052H673V438H539Z" />
<glyph unicode="&#xb2;" horiz-adv-x="780" d="M93 560V654Q113 667 150 695T235 762T329 849T415 949T479 1053T504 1155Q504 1212 486 1245T436 1293T365 1308Q304 1308 261 1268T203 1168L94 1218Q111 1279 151 1321T247 1385T366 1407Q441 1407 501 1383T595
1305T630 1159Q630 1095 597 1027T514 895T410 781T316 696T260 655H630V560H93Z" />
<glyph unicode="&#xb3;" horiz-adv-x="781" d="M383 547Q308 547 250 568T153 628T97 714L207 771Q219 735 242 707T301 663T385 647Q431 647 469 667T530 729T553 829Q553 890 533 926T478 980T403 998Q382 998 357 992T309 975L236 1051L495 1304H135V1400H646V1304L388
1059Q395 1063 408 1066T436 1072T466 1074Q515 1074 563 1049T643 970T676 830Q676 760 654 707T591 619T497 565T383 547Z" />
<glyph unicode="&#xb4;" horiz-adv-x="1300" d="M499 1131H347L633 1408H814L499 1131Z" />
<glyph unicode="&#xb5;" horiz-adv-x="1300" d="M213 -400V1000H367V-400H213ZM551 -23Q473 -23 410 1T304 77T237 211T214 409V1000H368V432Q368 316 392 244T467 139T596 105Q651 105 701 127T791 190T855 282T882 396L935 384Q935 306 910 234T837 103T717
11T551 -23ZM901 0L877 203V1000H1031V81L995 123H1151V0H901Z" />
<glyph unicode="&#xb6;" horiz-adv-x="1300" d="M592 -240V636H533Q478 636 413 657T290 725T194 845T157 1026Q157 1125 195 1196T294 1312T429 1378T573 1400H1046V-240H920V1277H718V-240H592Z" />
<glyph unicode="&#xb7;" horiz-adv-x="1000" d="M393 721H572V518H393V721Z" />
<glyph unicode="&#xb8;" horiz-adv-x="1300" d="M603 -403Q574 -403 548 -401T496 -395T450 -385T408 -372L446 -280Q472 -289 497 -296T551 -308T614 -312Q662 -312 698 -299T756 -262T777 -207Q777 -169 754 -158T697 -147Q674 -147 649 -154T603 -174T568 -197L481
-173L538 0H642L589 -155L575 -135Q586 -119 610 -105T668 -81T737 -72Q774 -72 808 -83T863 -123T885 -201Q885 -266 849 -311T749 -380T603 -403Z" />
<glyph unicode="&#xb9;" horiz-adv-x="780" d="M139 560V656H329V1286L143 1234V1343L346 1400H454V656H643V560H139Z" />
<glyph unicode="&#xba;" horiz-adv-x="1000" d="M746 1061Q683 1061 632 1091T550 1173T519 1288Q519 1350 549 1401T631 1482T746 1513Q808 1513 859 1483T940 1401T970 1288Q970 1225 940 1174T859 1092T746 1061ZM746 1163Q798 1163 833 1199T869 1288Q869
1340 834 1375T746 1411Q693 1411 657 1376T621 1288Q621 1235 657 1199T746 1163Z" />
<glyph unicode="&#xbb;" horiz-adv-x="1300" d="M731 171L659 248L1110 640L1170 535L731 171ZM1170 535H1113V639H1170V535ZM1110 536L659 926L731 1003L1170 639L1110 536ZM217 171L144 248L595 640L656 535L217 171ZM656 535H599V639H656V535ZM595 536L144
926L217 1003L656 639L595 536Z" />
<glyph unicode="&#xbc;" horiz-adv-x="1820" d="M139 560V656H329V1286L143 1234V1343L346 1400H454V656H643V560H139ZM577 0L1144 1400H1243L678 0H577ZM1480 0V187H1126V283L1409 840H1598V283H1725V187H1598V0H1480ZM1249 283H1480V763H1487L1249 283Z" />
<glyph unicode="&#xbd;" horiz-adv-x="1820" d="M139 560V656H329V1286L143 1234V1343L346 1400H454V656H643V560H139ZM577 0L1144 1400H1243L678 0H577ZM1133 0V94Q1153 107 1190 135T1275 202T1369 289T1455 389T1519 493T1544 595Q1544 652 1526 685T1476 733T1405
748Q1344 748 1301 708T1243 608L1134 658Q1151 719 1191 761T1287 825T1406 847Q1481 847 1541 823T1635 745T1670 599Q1670 535 1637 467T1554 335T1450 221T1356 136T1300 95H1670V0H1133Z" />
<glyph unicode="&#xbe;" horiz-adv-x="1820" d="M383 547Q308 547 250 568T153 628T97 714L207 771Q219 735 242 707T301 663T385 647Q431 647 469 667T530 729T553 829Q553 890 533 926T478 980T403 998Q382 998 357 992T309 975L236 1051L495 1304H135V1400H646V1304L388
1059Q395 1063 408 1066T436 1072T466 1074Q515 1074 563 1049T643 970T676 830Q676 760 654 707T591 619T497 565T383 547ZM578 0L1145 1400H1244L679 0H578ZM1481 0V187H1127V283L1410 840H1599V283H1726V187H1599V0H1481ZM1250 283H1481V763H1488L1250 283Z"
/>
<glyph unicode="&#xbf;" horiz-adv-x="1300" d="M721 625V567Q721 497 702 439T650 333T579 243T502 165Q463 127 429 90T374 14T353 -71Q353 -132 376 -173T438 -238T522 -272T614 -283Q667 -283 718 -268T813 -226T890 -161T940 -77L1067 -149Q1043 -219 977
-278T818 -375T617 -412Q534 -412 459 -394T326 -337T233 -234T199 -76Q199 -11 225 41T294 139T383 227Q433 274 478 324T553 434T582 572V625H721ZM741 797H561V1000H741V797Z" />
<glyph unicode="&#xc0;" horiz-adv-x="1300" d="M1170 0H1008L908 372H396L296 0H134L518 1400H786L1170 0ZM638 1277L423 495H881L666 1277H638ZM576 1531L261 1808H442L728 1531H576Z" />
<glyph unicode="&#xc1;" horiz-adv-x="1300" d="M1170 0H1008L908 372H396L296 0H134L518 1400H786L1170 0ZM638 1277L423 495H881L666 1277H638ZM713 1531H561L847 1808H1028L713 1531Z" />
<glyph unicode="&#xc2;" horiz-adv-x="1300" d="M1170 0H1008L908 372H396L296 0H134L518 1400H786L1170 0ZM638 1277L423 495H881L666 1277H638ZM322 1532L596 1788H708L983 1532H831L653 1711L473 1532H322Z" />
<glyph unicode="&#xc3;" horiz-adv-x="1300" d="M1170 0H1008L908 372H396L296 0H134L518 1400H786L1170 0ZM638 1277L423 495H881L666 1277H638ZM763 1528Q716 1528 687 1546T632 1586Q611 1604 590 1617T539 1631Q488 1631 460 1597T421 1540L343 1605Q349 1622
374 1653T440 1711T536 1737Q581 1737 611 1719T666 1679Q688 1660 709 1646T760 1632Q810 1632 839 1667T878 1724L953 1658Q947 1641 925 1610T862 1554T763 1528Z" />
<glyph unicode="&#xc4;" horiz-adv-x="1300" d="M1170 0H1008L908 372H396L296 0H134L518 1400H786L1170 0ZM638 1277L423 495H881L666 1277H638ZM348 1751H512V1547H348V1751ZM791 1751H956V1547H791V1751Z" />
<glyph unicode="&#xc5;" horiz-adv-x="1300" d="M1170 0H1008L908 372H396L296 0H134L518 1400H786L1170 0ZM638 1277L423 495H881L666 1277H638ZM654 1491Q605 1491 565 1514T500 1578T475 1669Q475 1717 499 1756T564 1820T654 1844Q701 1844 741 1820T805 1757T829
1669Q829 1618 805 1578T741 1515T654 1491ZM654 1581Q690 1581 715 1605T740 1670Q740 1706 715 1728T654 1751Q617 1751 592 1729T566 1670Q566 1630 591 1606T654 1581Z" />
<glyph unicode="&#xc6;" horiz-adv-x="1700" d="M833 0V1277H674L708 1400H1502V1277H987V749H1438V627H987V123H1502V0H833ZM394 323L428 441H890L873 323H394ZM143 0L652 1400H803L308 0H143Z" />
<glyph unicode="&#xc7;" horiz-adv-x="1300" d="M723 -403Q694 -403 668 -401T617 -395T570 -385T528 -372L566 -280Q593 -289 618 -296T672 -308T734 -312Q782 -312 818 -299T876 -262T897 -207Q897 -169 874 -158T817 -147Q794 -147 769 -154T723 -174T688 -197L601
-173L658 0H762L709 -155L695 -135Q707 -119 731 -105T788 -81T857 -72Q894 -72 928 -83T984 -123T1006 -201Q1006 -266 969 -311T869 -380T723 -403ZM703 -22Q617 -22 535 3T380 83T252 222T165 424T134 696Q134 850 166 967T253 1169T382 1307T539 1386T708 1412Q790
1412 859 1389T984 1324T1081 1229T1149 1111L1011 1042Q993 1086 967 1129T904 1208T819 1265T708 1287Q632 1287 559 1253T425 1148T330 965T294 696Q294 539 329 427T423 243T555 137T702 103Q765 103 814 125T901 183T966 260T1011 341L1149 271Q1123 212 1082
159T984 66T858 2T703 -22Z" />
<glyph unicode="&#xc8;" horiz-adv-x="1300" d="M248 0V1400H1097V1277H402V749H1015V627H402V123H1097V0H248ZM618 1531L303 1808H484L770 1531H618Z" />
<glyph unicode="&#xc9;" horiz-adv-x="1300" d="M248 0V1400H1097V1277H402V749H1015V627H402V123H1097V0H248ZM755 1531H603L889 1808H1070L755 1531Z" />
<glyph unicode="&#xca;" horiz-adv-x="1300" d="M248 0V1400H1097V1277H402V749H1015V627H402V123H1097V0H248ZM364 1532L638 1788H750L1025 1532H873L695 1711L515 1532H364Z" />
<glyph unicode="&#xcb;" horiz-adv-x="1300" d="M248 0V1400H1097V1277H402V749H1015V627H402V123H1097V0H248ZM390 1751H554V1547H390V1751ZM833 1751H998V1547H833V1751Z" />
<glyph unicode="&#xcc;" horiz-adv-x="1300" d="M280 0V123H572V1277H280V1400H1020V1277H726V123H1020V0H280ZM576 1531L261 1808H442L728 1531H576Z" />
<glyph unicode="&#xcd;" horiz-adv-x="1300" d="M280 0V123H572V1277H280V1400H1020V1277H726V123H1020V0H280ZM713 1531H561L847 1808H1028L713 1531Z" />
<glyph unicode="&#xce;" horiz-adv-x="1300" d="M280 0V123H572V1277H280V1400H1020V1277H726V123H1020V0H280ZM322 1532L596 1788H708L983 1532H831L653 1711L473 1532H322Z" />
<glyph unicode="&#xcf;" horiz-adv-x="1300" d="M280 0V123H572V1277H280V1400H1020V1277H726V123H1020V0H280ZM348 1751H512V1547H348V1751ZM791 1751H956V1547H791V1751Z" />
<glyph unicode="&#xd0;" horiz-adv-x="1300" d="M220 0V643H54V757H220V1400H558Q628 1400 698 1388T833 1347T955 1266T1054 1137T1121 952T1145 700Q1145 557 1121 449T1055 263T956 135T834 54T698 12T558 0H220ZM374 123H547Q634 123 712 149T853 240T950
417T986 700Q986 871 951 983T853 1159T713 1250T547 1277H374V757H671V643H374V123Z" />
<glyph unicode="&#xd1;" horiz-adv-x="1300" d="M174 0V1400H401L985 142H961V1400H1115V0H913L321 1254H328V0H174ZM754 1528Q707 1528 678 1546T623 1586Q602 1604 581 1617T530 1631Q479 1631 451 1597T412 1540L334 1605Q340 1622 365 1653T431 1711T527 1737Q572
1737 602 1719T657 1679Q679 1660 700 1646T751 1632Q801 1632 830 1667T869 1724L944 1658Q938 1641 916 1610T853 1554T754 1528Z" />
<glyph unicode="&#xd2;" horiz-adv-x="1300" d="M649 -22Q564 -22 483 3T332 83T209 223T127 425T97 696Q97 848 126 965T209 1167T332 1306T483 1386T649 1412Q733 1412 813 1387T964 1307T1086 1168T1169 966T1199 696Q1199 543 1169 426T1087 223T964 84T814
4T649 -22ZM649 103Q722 103 792 137T918 242T1007 426T1041 696Q1041 852 1008 964T918 1147T792 1253T649 1287Q575 1287 505 1253T379 1148T289 964T255 696Q255 539 288 427T378 243T505 137T649 103ZM571 1531L256 1808H437L723 1531H571Z" />
<glyph unicode="&#xd3;" horiz-adv-x="1300" d="M649 -22Q564 -22 483 3T332 83T209 223T127 425T97 696Q97 848 126 965T209 1167T332 1306T483 1386T649 1412Q733 1412 813 1387T964 1307T1086 1168T1169 966T1199 696Q1199 543 1169 426T1087 223T964 84T814
4T649 -22ZM649 103Q722 103 792 137T918 242T1007 426T1041 696Q1041 852 1008 964T918 1147T792 1253T649 1287Q575 1287 505 1253T379 1148T289 964T255 696Q255 539 288 427T378 243T505 137T649 103ZM708 1531H556L842 1808H1023L708 1531Z" />
<glyph unicode="&#xd4;" horiz-adv-x="1300" d="M649 -22Q564 -22 483 3T332 83T209 223T127 425T97 696Q97 848 126 965T209 1167T332 1306T483 1386T649 1412Q733 1412 813 1387T964 1307T1086 1168T1169 966T1199 696Q1199 543 1169 426T1087 223T964 84T814
4T649 -22ZM649 103Q722 103 792 137T918 242T1007 426T1041 696Q1041 852 1008 964T918 1147T792 1253T649 1287Q575 1287 505 1253T379 1148T289 964T255 696Q255 539 288 427T378 243T505 137T649 103ZM317 1532L591 1788H703L978 1532H826L648 1711L468 1532H317Z"
/>
<glyph unicode="&#xd5;" horiz-adv-x="1300" d="M649 -22Q564 -22 483 3T332 83T209 223T127 425T97 696Q97 848 126 965T209 1167T332 1306T483 1386T649 1412Q733 1412 813 1387T964 1307T1086 1168T1169 966T1199 696Q1199 543 1169 426T1087 223T964 84T814
4T649 -22ZM649 103Q722 103 792 137T918 242T1007 426T1041 696Q1041 852 1008 964T918 1147T792 1253T649 1287Q575 1287 505 1253T379 1148T289 964T255 696Q255 539 288 427T378 243T505 137T649 103ZM759 1528Q712 1528 683 1546T628 1586Q607 1604 586 1617T535
1631Q484 1631 456 1597T417 1540L339 1605Q345 1622 370 1653T436 1711T532 1737Q577 1737 607 1719T662 1679Q684 1660 705 1646T756 1632Q806 1632 835 1667T874 1724L949 1658Q943 1641 921 1610T858 1554T759 1528Z" />
<glyph unicode="&#xd6;" horiz-adv-x="1300" d="M649 -22Q564 -22 483 3T332 83T209 223T127 425T97 696Q97 848 126 965T209 1167T332 1306T483 1386T649 1412Q733 1412 813 1387T964 1307T1086 1168T1169 966T1199 696Q1199 543 1169 426T1087 223T964 84T814
4T649 -22ZM649 103Q722 103 792 137T918 242T1007 426T1041 696Q1041 852 1008 964T918 1147T792 1253T649 1287Q575 1287 505 1253T379 1148T289 964T255 696Q255 539 288 427T378 243T505 137T649 103ZM343 1751H507V1547H343V1751ZM786 1751H951V1547H786V1751Z"
/>
<glyph unicode="&#xd7;" horiz-adv-x="1300" d="M829 292L290 831L381 924L922 383L829 292ZM381 292L288 383L827 924L920 831L381 292Z" />
<glyph unicode="&#xd8;" horiz-adv-x="1300" d="M121 39L1071 1422L1179 1350L229 -34L121 39ZM649 -22Q564 -22 483 3T332 83T209 223T127 425T97 696Q97 848 126 965T209 1167T332 1306T483 1386T649 1412Q733 1412 813 1387T964 1307T1086 1168T1169 966T1199
696Q1199 543 1169 426T1087 223T964 84T814 4T649 -22ZM649 103Q722 103 792 137T918 242T1007 426T1041 696Q1041 852 1008 964T918 1147T792 1253T649 1287Q575 1287 505 1253T379 1148T289 964T255 696Q255 539 288 427T378 243T505 137T649 103Z" />
<glyph unicode="&#xd9;" horiz-adv-x="1300" d="M652 -22Q554 -22 468 10T315 110T212 288T175 552V1400H329V559Q329 406 368 306T480 156T652 106Q752 106 824 155T934 305T973 559V1400H1127V552Q1127 398 1091 289T989 111T838 10T652 -22ZM574 1531L259 1808H440L726
1531H574Z" />
<glyph unicode="&#xda;" horiz-adv-x="1300" d="M652 -22Q554 -22 468 10T315 110T212 288T175 552V1400H329V559Q329 406 368 306T480 156T652 106Q752 106 824 155T934 305T973 559V1400H1127V552Q1127 398 1091 289T989 111T838 10T652 -22ZM711 1531H559L845
1808H1026L711 1531Z" />
<glyph unicode="&#xdb;" horiz-adv-x="1300" d="M652 -22Q554 -22 468 10T315 110T212 288T175 552V1400H329V559Q329 406 368 306T480 156T652 106Q752 106 824 155T934 305T973 559V1400H1127V552Q1127 398 1091 289T989 111T838 10T652 -22ZM320 1532L594 1788H706L981
1532H829L651 1711L471 1532H320Z" />
<glyph unicode="&#xdc;" horiz-adv-x="1300" d="M652 -22Q554 -22 468 10T315 110T212 288T175 552V1400H329V559Q329 406 368 306T480 156T652 106Q752 106 824 155T934 305T973 559V1400H1127V552Q1127 398 1091 289T989 111T838 10T652 -22ZM346 1751H510V1547H346V1751ZM789
1751H954V1547H789V1751Z" />
<glyph unicode="&#xdd;" horiz-adv-x="1300" d="M564 0V533L145 1400H307L641 680L973 1400H1135L718 533V0H564ZM700 1531H548L834 1808H1015L700 1531Z" />
<glyph unicode="&#xde;" horiz-adv-x="1300" d="M254 0V1400H408V1176H597Q645 1176 707 1168T833 1133T951 1056T1038 922T1071 714Q1071 589 1038 507T951 374T833 298T707 264T597 256H408V0H254ZM408 379H587Q621 379 664 384T752 408T833 462T892 560T915
714Q915 807 893 868T833 967T752 1022T665 1047T587 1053H408V379Z" />
<glyph unicode="&#xdf;" horiz-adv-x="1300" d="M691 -22Q632 -22 585 -15T502 2T442 20L476 149Q500 139 550 124T677 109Q733 109 788 121T889 163T962 245T989 378Q989 448 961 495T892 574T807 634Q775 655 746 676T700 723T682 782Q682 818 696 844T731 891T777
933Q804 955 828 980T869 1038T886 1117Q886 1174 866 1216T812 1287T732 1331T635 1345Q579 1345 525 1328T427 1272T355 1172T328 1021V0H174V1040Q174 1153 212 1235T316 1370T464 1449T634 1475Q748 1475 838 1435T982 1316T1035 1124Q1035 1059 1014 1012T961
930T900 869Q873 846 855 826T837 786Q837 770 858 754T911 718Q945 698 984 670T1059 603T1117 508T1140 375Q1140 268 1104 193T1005 70T861 0T691 -22Z" />
<glyph unicode="&#xe0;" horiz-adv-x="1300" d="M567 -22Q481 -22 410 -1T287 62T207 164T179 303Q179 368 202 419T266 507T359 568T470 604T588 616Q663 616 725 600T832 560T895 513V678Q895 741 871 783T807 851T716 887T611 898Q560 898 512 887T423 860T349
824T295 786L221 903Q256 932 315 959T453 1005T624 1024Q682 1024 742 1014T857 981T955 920T1024 828T1049 699V123H1204V0H920L907 130Q888 97 843 62T729 3T567 -22ZM601 100Q685 100 744 126T841 187T895 250V394Q875 422 830 448T727 491T611 509Q541 509
477 489T372 424T331 309Q331 238 364 192T458 123T601 100ZM815 1131L500 1408H681L967 1131H815Z" />
<glyph unicode="&#xe1;" horiz-adv-x="1300" d="M567 -22Q481 -22 410 -1T287 62T207 164T179 303Q179 368 202 419T266 507T359 568T470 604T588 616Q663 616 725 600T832 560T895 513V678Q895 741 871 783T807 851T716 887T611 898Q560 898 512 887T423 860T349
824T295 786L221 903Q256 932 315 959T453 1005T624 1024Q682 1024 742 1014T857 981T955 920T1024 828T1049 699V123H1204V0H920L907 130Q888 97 843 62T729 3T567 -22ZM601 100Q685 100 744 126T841 187T895 250V394Q875 422 830 448T727 491T611 509Q541 509
477 489T372 424T331 309Q331 238 364 192T458 123T601 100ZM696 1131H544L830 1408H1011L696 1131Z" />
<glyph unicode="&#xe2;" horiz-adv-x="1300" d="M567 -22Q481 -22 410 -1T287 62T207 164T179 303Q179 368 202 419T266 507T359 568T470 604T588 616Q663 616 725 600T832 560T895 513V678Q895 741 871 783T807 851T716 887T611 898Q560 898 512 887T423 860T349
824T295 786L221 903Q256 932 315 959T453 1005T624 1024Q682 1024 742 1014T857 981T955 920T1024 828T1049 699V123H1204V0H920L907 130Q888 97 843 62T729 3T567 -22ZM601 100Q685 100 744 126T841 187T895 250V394Q875 422 830 448T727 491T611 509Q541 509
477 489T372 424T331 309Q331 238 364 192T458 123T601 100ZM562 1132L836 1388H948L1223 1132H1071L893 1311L713 1132H562Z" />
<glyph unicode="&#xe3;" horiz-adv-x="1300" d="M567 -22Q481 -22 410 -1T287 62T207 164T179 303Q179 368 202 419T266 507T359 568T470 604T588 616Q663 616 725 600T832 560T895 513V678Q895 741 871 783T807 851T716 887T611 898Q560 898 512 887T423 860T349
824T295 786L221 903Q256 932 315 959T453 1005T624 1024Q682 1024 742 1014T857 981T955 920T1024 828T1049 699V123H1204V0H920L907 130Q888 97 843 62T729 3T567 -22ZM601 100Q685 100 744 126T841 187T895 250V394Q875 422 830 448T727 491T611 509Q541 509
477 489T372 424T331 309Q331 238 364 192T458 123T601 100ZM1003 1128Q956 1128 927 1146T872 1186Q851 1204 830 1217T779 1231Q728 1231 700 1197T661 1140L583 1205Q589 1222 614 1253T680 1311T776 1337Q821 1337 851 1319T906 1279Q928 1260 949 1246T1000
1232Q1050 1232 1079 1267T1118 1324L1193 1258Q1187 1241 1165 1210T1102 1154T1003 1128Z" />
<glyph unicode="&#xe4;" horiz-adv-x="1300" d="M567 -22Q481 -22 410 -1T287 62T207 164T179 303Q179 368 202 419T266 507T359 568T470 604T588 616Q663 616 725 600T832 560T895 513V678Q895 741 871 783T807 851T716 887T611 898Q560 898 512 887T423 860T349
824T295 786L221 903Q256 932 315 959T453 1005T624 1024Q682 1024 742 1014T857 981T955 920T1024 828T1049 699V123H1204V0H920L907 130Q888 97 843 62T729 3T567 -22ZM601 100Q685 100 744 126T841 187T895 250V394Q875 422 830 448T727 491T611 509Q541 509
477 489T372 424T331 309Q331 238 364 192T458 123T601 100ZM331 1351H495V1147H331V1351ZM774 1351H939V1147H774V1351Z" />
<glyph unicode="&#xe5;" horiz-adv-x="1300" d="M567 -22Q481 -22 410 -1T287 62T207 164T179 303Q179 368 202 419T266 507T359 568T470 604T588 616Q663 616 725 600T832 560T895 513V678Q895 741 871 783T807 851T716 887T611 898Q560 898 512 887T423 860T349
824T295 786L221 903Q256 932 315 959T453 1005T624 1024Q682 1024 742 1014T857 981T955 920T1024 828T1049 699V123H1204V0H920L907 130Q888 97 843 62T729 3T567 -22ZM601 100Q685 100 744 126T841 187T895 250V394Q875 422 830 448T727 491T611 509Q541 509
477 489T372 424T331 309Q331 238 364 192T458 123T601 100ZM894 1091Q845 1091 805 1114T740 1178T715 1269Q715 1317 739 1356T804 1420T894 1444Q941 1444 981 1420T1045 1357T1069 1269Q1069 1218 1045 1178T981 1115T894 1091ZM894 1181Q930 1181 955 1205T980
1270Q980 1306 955 1328T894 1351Q857 1351 832 1329T806 1270Q806 1230 831 1206T894 1181Z" />
<glyph unicode="&#xe6;" horiz-adv-x="1700" d="M433 -22Q336 -22 263 3T142 74T69 182T44 319Q44 379 63 429T119 519T208 586T326 628T472 643Q535 643 586 632T674 606T733 576V713Q733 762 713 796T658 853T576 887T476 898Q411 898 349 883T235 847T156 810L93
930Q128 949 187 971T326 1008T497 1024Q576 1024 648 1004T772 941T840 832Q882 898 939 940T1064 1003T1202 1024Q1297 1024 1378 993T1519 901T1613 755T1646 557Q1646 540 1645 518T1641 481H894Q897 366 936 281T1044 149T1203 102Q1287 102 1340 129T1424
194T1466 266L1607 193Q1588 156 1556 119T1474 49T1356 -2T1199 -22Q1122 -22 1050 2T918 77T818 204Q789 141 736 90T606 8T433 -22ZM461 97Q551 97 611 138T702 244T733 380V465Q715 478 690 490T633 513T567 529T498 536Q400 536 333 511T232 437T197 323Q197
256 225 206T312 126T461 97ZM898 587H1481V606Q1481 672 1462 726T1406 820T1319 880T1204 901Q1129 901 1064 867T954 764T898 587Z" />
<glyph unicode="&#xe7;" horiz-adv-x="1300" d="M704 -22Q638 -22 571 -3T441 55T330 157T253 304T224 502Q224 615 252 701T330 848T441 948T570 1005T704 1024Q783 1024 848 1004T965 948T1050 870T1102 782L963 717Q950 759 918 801T832 872T707 900Q652 900
596 878T492 807T415 683T386 502Q386 398 415 323T491 198T595 126T707 102Q780 102 832 130T917 199T962 280L1102 214Q1086 174 1052 132T967 56T849 0T704 -22ZM706 -403Q677 -403 651 -401T599 -395T553 -385T511 -372L549 -280Q575 -289 600 -296T654 -308T717
-312Q765 -312 801 -299T859 -262T880 -207Q880 -169 857 -158T800 -147Q777 -147 752 -154T706 -174T671 -197L584 -173L641 0H745L692 -155L678 -135Q689 -119 713 -105T771 -81T840 -72Q877 -72 911 -83T966 -123T988 -201Q988 -266 952 -311T852 -380T706 -403Z"
/>
<glyph unicode="&#xe8;" horiz-adv-x="1300" d="M652 -22Q566 -22 480 8T323 102T209 265T166 502Q166 640 209 739T324 901T482 994T656 1024Q747 1024 832 995T984 907T1090 761T1129 557Q1129 540 1128 518T1123 481H288V587H964Q964 594 964 596T964 606Q964
700 921 766T808 866T657 901Q600 901 542 879T434 810T356 686T326 503Q326 369 374 280T499 147T659 102Q739 102 799 127T897 190T948 266L1092 193Q1072 153 1033 115T938 46T810 -3T652 -22ZM841 1131L526 1408H707L993 1131H841Z" />
<glyph unicode="&#xe9;" horiz-adv-x="1300" d="M652 -22Q566 -22 480 8T323 102T209 265T166 502Q166 640 209 739T324 901T482 994T656 1024Q747 1024 832 995T984 907T1090 761T1129 557Q1129 540 1128 518T1123 481H288V587H964Q964 594 964 596T964 606Q964
700 921 766T808 866T657 901Q600 901 542 879T434 810T356 686T326 503Q326 369 374 280T499 147T659 102Q739 102 799 127T897 190T948 266L1092 193Q1072 153 1033 115T938 46T810 -3T652 -22ZM722 1131H570L856 1408H1037L722 1131Z" />
<glyph unicode="&#xea;" horiz-adv-x="1300" d="M652 -22Q566 -22 480 8T323 102T209 265T166 502Q166 640 209 739T324 901T482 994T656 1024Q747 1024 832 995T984 907T1090 761T1129 557Q1129 540 1128 518T1123 481H288V587H964Q964 594 964 596T964 606Q964
700 921 766T808 866T657 901Q600 901 542 879T434 810T356 686T326 503Q326 369 374 280T499 147T659 102Q739 102 799 127T897 190T948 266L1092 193Q1072 153 1033 115T938 46T810 -3T652 -22ZM331 1132L605 1388H717L992 1132H840L662 1311L482 1132H331Z"
/>
<glyph unicode="&#xeb;" horiz-adv-x="1300" d="M652 -22Q566 -22 480 8T323 102T209 265T166 502Q166 640 209 739T324 901T482 994T656 1024Q747 1024 832 995T984 907T1090 761T1129 557Q1129 540 1128 518T1123 481H288V587H964Q964 594 964 596T964 606Q964
700 921 766T808 866T657 901Q600 901 542 879T434 810T356 686T326 503Q326 369 374 280T499 147T659 102Q739 102 799 127T897 190T948 266L1092 193Q1072 153 1033 115T938 46T810 -3T652 -22ZM356 1351H520V1147H356V1351ZM799 1351H964V1147H799V1351Z" />
<glyph unicode="&#xec;" horiz-adv-x="1000" d="M148 0V123H486V877H148V1000H640V123H947V0H148ZM477 1131L162 1408H343L629 1131H477Z" />
<glyph unicode="&#xed;" horiz-adv-x="1000" d="M148 0V123H486V877H148V1000H640V123H947V0H148ZM614 1131H462L748 1408H929L614 1131Z" />
<glyph unicode="&#xee;" horiz-adv-x="1000" d="M148 0V123H486V877H148V1000H640V123H947V0H148ZM480 1132L754 1388H866L1141 1132H989L811 1311L631 1132H480Z" />
<glyph unicode="&#xef;" horiz-adv-x="1000" d="M148 0V123H486V877H148V1000H640V123H947V0H148ZM505 1351H669V1147H505V1351ZM948 1351H1113V1147H948V1351Z" />
<glyph unicode="&#xf0;" horiz-adv-x="1300" d="M634 -21Q535 -21 451 15T303 119T206 284T171 503Q171 625 202 721T291 886T432 989T619 1025Q711 1025 785 993T914 908T1000 787T1036 649L936 563Q935 639 915 700T857 805T762 872T633 896Q563 896 507 869T411
789T350 665T329 503Q329 414 351 342T414 217T512 136T638 107Q707 107 761 134T854 222T913 385T933 637Q933 776 901 898T813 1122T681 1301T521 1426T348 1491L408 1599Q509 1578 609 1523T797 1382T953 1186T1059 942T1098 657Q1098 465 1062 335T961 127T813
14T634 -21ZM513 1262L428 1346L772 1585L842 1494L513 1262Z" />
<glyph unicode="&#xf1;" horiz-adv-x="1300" d="M245 0V1000H385L399 798V0H245ZM909 0V568Q909 684 885 756T810 861T681 895Q626 895 576 873T486 810T422 718T395 604L342 616Q342 694 367 766T440 897T560 989T726 1023Q805 1023 867 999T974 923T1041 789T1064
591V0H909ZM776 1128Q729 1128 700 1146T645 1186Q624 1204 603 1217T552 1231Q501 1231 473 1197T434 1140L356 1205Q362 1222 387 1253T453 1311T549 1337Q594 1337 624 1319T679 1279Q701 1260 722 1246T773 1232Q823 1232 852 1267T891 1324L966 1258Q960 1241
938 1210T875 1154T776 1128Z" />
<glyph unicode="&#xf2;" horiz-adv-x="1300" d="M655 -22Q591 -22 524 -5T394 51T281 150T202 299T173 502Q173 617 202 704T281 852T393 951T523 1006T655 1024Q720 1024 787 1007T917 951T1030 852T1109 704T1138 502Q1138 386 1109 299T1030 151T918 51T788
-4T655 -22ZM655 102Q708 102 764 121T869 187T949 310T980 502Q980 615 949 691T869 814T764 880T655 900Q603 900 547 880T442 814T362 692T331 502Q331 387 362 310T441 187T546 122T655 102ZM835 1131L520 1408H701L987 1131H835Z" />
<glyph unicode="&#xf3;" horiz-adv-x="1300" d="M655 -22Q591 -22 524 -5T394 51T281 150T202 299T173 502Q173 617 202 704T281 852T393 951T523 1006T655 1024Q720 1024 787 1007T917 951T1030 852T1109 704T1138 502Q1138 386 1109 299T1030 151T918 51T788
-4T655 -22ZM655 102Q708 102 764 121T869 187T949 310T980 502Q980 615 949 691T869 814T764 880T655 900Q603 900 547 880T442 814T362 692T331 502Q331 387 362 310T441 187T546 122T655 102ZM716 1131H564L850 1408H1031L716 1131Z" />
<glyph unicode="&#xf4;" horiz-adv-x="1300" d="M655 -22Q591 -22 524 -5T394 51T281 150T202 299T173 502Q173 617 202 704T281 852T393 951T523 1006T655 1024Q720 1024 787 1007T917 951T1030 852T1109 704T1138 502Q1138 386 1109 299T1030 151T918 51T788
-4T655 -22ZM655 102Q708 102 764 121T869 187T949 310T980 502Q980 615 949 691T869 814T764 880T655 900Q603 900 547 880T442 814T362 692T331 502Q331 387 362 310T441 187T546 122T655 102ZM325 1132L599 1388H711L986 1132H834L656 1311L476 1132H325Z" />
<glyph unicode="&#xf5;" horiz-adv-x="1300" d="M655 -22Q591 -22 524 -5T394 51T281 150T202 299T173 502Q173 617 202 704T281 852T393 951T523 1006T655 1024Q720 1024 787 1007T917 951T1030 852T1109 704T1138 502Q1138 386 1109 299T1030 151T918 51T788
-4T655 -22ZM655 102Q708 102 764 121T869 187T949 310T980 502Q980 615 949 691T869 814T764 880T655 900Q603 900 547 880T442 814T362 692T331 502Q331 387 362 310T441 187T546 122T655 102ZM767 1128Q720 1128 691 1146T636 1186Q615 1204 594 1217T543 1231Q492
1231 464 1197T425 1140L347 1205Q353 1222 378 1253T444 1311T540 1337Q585 1337 615 1319T670 1279Q692 1260 713 1246T764 1232Q814 1232 843 1267T882 1324L957 1258Q951 1241 929 1210T866 1154T767 1128Z" />
<glyph unicode="&#xf6;" horiz-adv-x="1300" d="M655 -22Q591 -22 524 -5T394 51T281 150T202 299T173 502Q173 617 202 704T281 852T393 951T523 1006T655 1024Q720 1024 787 1007T917 951T1030 852T1109 704T1138 502Q1138 386 1109 299T1030 151T918 51T788
-4T655 -22ZM655 102Q708 102 764 121T869 187T949 310T980 502Q980 615 949 691T869 814T764 880T655 900Q603 900 547 880T442 814T362 692T331 502Q331 387 362 310T441 187T546 122T655 102ZM351 1351H515V1147H351V1351ZM794 1351H959V1147H794V1351Z" />
<glyph unicode="&#xf7;" horiz-adv-x="1300" d="M223 543V673H987V543H223ZM596 201Q553 201 523 232T493 307Q493 349 523 379T596 410Q640 410 669 380T699 307Q699 263 670 232T596 201ZM596 812Q553 812 523 843T493 917Q493 960 523 990T596 1021Q640 1021
669 991T699 917Q699 874 670 843T596 812Z" />
<glyph unicode="&#xf8;" horiz-adv-x="1300" d="M229 28L1011 1030L1084 977L301 -25L229 28ZM655 -22Q591 -22 524 -5T394 51T281 150T202 299T173 502Q173 617 202 704T281 852T393 951T523 1006T655 1024Q720 1024 787 1007T917 951T1030 852T1109 704T1138
502Q1138 386 1109 299T1030 151T918 51T788 -4T655 -22ZM655 102Q708 102 764 121T869 187T949 310T980 502Q980 615 949 691T869 814T764 880T655 900Q603 900 547 880T442 814T362 692T331 502Q331 387 362 310T441 187T546 122T655 102Z" />
<glyph unicode="&#xf9;" horiz-adv-x="1300" d="M551 -23Q473 -23 410 1T304 77T237 211T214 409V1000H368V432Q368 316 392 244T467 139T596 105Q651 105 701 127T791 190T855 282T882 396L935 384Q935 306 910 234T837 103T717 11T551 -23ZM901 0L877 203V1000H1031V81L995
123H1151V0H901ZM805 1131L490 1408H671L957 1131H805Z" />
<glyph unicode="&#xfa;" horiz-adv-x="1300" d="M551 -23Q473 -23 410 1T304 77T237 211T214 409V1000H368V432Q368 316 392 244T467 139T596 105Q651 105 701 127T791 190T855 282T882 396L935 384Q935 306 910 234T837 103T717 11T551 -23ZM901 0L877 203V1000H1031V81L995
123H1151V0H901ZM686 1131H534L820 1408H1001L686 1131Z" />
<glyph unicode="&#xfb;" horiz-adv-x="1300" d="M551 -23Q473 -23 410 1T304 77T237 211T214 409V1000H368V432Q368 316 392 244T467 139T596 105Q651 105 701 127T791 190T855 282T882 396L935 384Q935 306 910 234T837 103T717 11T551 -23ZM901 0L877 203V1000H1031V81L995
123H1151V0H901ZM551 1132L825 1388H937L1212 1132H1060L882 1311L702 1132H551Z" />
<glyph unicode="&#xfc;" horiz-adv-x="1300" d="M551 -23Q473 -23 410 1T304 77T237 211T214 409V1000H368V432Q368 316 392 244T467 139T596 105Q651 105 701 127T791 190T855 282T882 396L935 384Q935 306 910 234T837 103T717 11T551 -23ZM901 0L877 203V1000H1031V81L995
123H1151V0H901ZM577 1351H741V1147H577V1351ZM1020 1351H1185V1147H1020V1351Z" />
<glyph unicode="&#xfd;" horiz-adv-x="1300" d="M441 -400L615 39L652 -8H560L179 1000H341L671 97H639L964 1000H1123L597 -400H441ZM698 1131H546L832 1408H1013L698 1131Z" />
<glyph unicode="&#xfe;" horiz-adv-x="1300" d="M219 -400V1500H373V-400H219ZM689 -22Q596 -22 524 16T402 117T326 254T300 397L369 419Q375 361 396 306T454 205T539 133T650 106Q730 106 799 148T912 278T955 502Q955 640 914 726T804 853T657 894Q596 894
547 869T460 803T400 710T367 605L302 626Q302 693 329 762T407 891T532 986T699 1022Q801 1022 895 968T1049 799T1109 502Q1109 366 1073 267T975 104T840 9T689 -22Z" />
<glyph unicode="&#xff;" horiz-adv-x="1300" d="M441 -400L615 39L652 -8H560L179 1000H341L671 97H639L964 1000H1123L597 -400H441ZM333 1351H497V1147H333V1351ZM776 1351H941V1147H776V1351Z" />
<glyph unicode="&#x2013;" horiz-adv-x="1300" d="M215 543V673H965V543H215Z" />
<glyph unicode="&#x2014;" horiz-adv-x="1300" d="M57 543V673H1139V543H57Z" />
<glyph unicode="&#x2018;" horiz-adv-x="1000" d="M552 1446L619 1356Q596 1347 572 1330T533 1284T517 1207L401 1212Q401 1281 426 1328T486 1405T552 1446ZM595 1212V1008H401V1212H595Z" />
<glyph unicode="&#x2019;" horiz-adv-x="1000" d="M437 962L370 1052Q394 1063 417 1079T456 1124T472 1202L587 1197Q587 1128 563 1081T503 1004T437 962ZM394 1197V1400H587V1197H394Z" />
<glyph unicode="&#x201a;" horiz-adv-x="1000" d="M437 -234L370 -144Q394 -134 417 -118T456 -72T472 5L588 0Q588 -69 563 -116T503 -192T437 -234ZM394 0V203H588V0H394Z" />
<glyph unicode="&#x201c;" horiz-adv-x="1300" d="M562 1440L629 1350Q606 1341 582 1324T543 1278T528 1201L412 1206Q412 1275 437 1322T496 1399T562 1440ZM605 1206V1002H412V1206H605ZM900 1440L967 1350Q944 1341 920 1324T881 1278T865 1201L750 1206Q750
1275 774 1322T834 1399T900 1440ZM943 1206V1002H750V1206H943Z" />
<glyph unicode="&#x201d;" horiz-adv-x="1300" d="M744 962L677 1052Q701 1063 724 1079T763 1124T779 1202L895 1197Q895 1128 871 1081T811 1004T744 962ZM701 1197V1400H895V1197H701ZM407 962L340 1052Q364 1063 387 1079T425 1124T441 1202L557 1197Q557
1128 532 1081T472 1004T407 962ZM364 1197V1400H557V1197H364Z" />
<glyph unicode="&#x201e;" horiz-adv-x="1300" d="M446 -234L379 -144Q403 -134 426 -118T465 -72T481 5L597 0Q597 -69 572 -116T512 -192T446 -234ZM403 0V203H597V0H403ZM778 -234L711 -144Q735 -134 758 -118T797 -72T813 5L929 0Q929 -69 904 -116T844 -192T778
-234ZM735 0V203H929V0H735Z" />
<glyph unicode="&#x2022;" horiz-adv-x="1300" d="M592 456Q532 456 484 484T407 562T378 670Q378 730 406 779T483 857T592 886Q652 886 701 858T778 780T806 670Q806 611 778 562T701 485T592 456Z" />
<glyph unicode="&#x2039;" horiz-adv-x="1300" d="M791 171L351 535L412 640L863 248L791 171ZM351 535V639H409V535H351ZM412 536L351 639L791 1003L863 926L412 536Z" />
<glyph unicode="&#x203a;" horiz-adv-x="1300" d="M465 171L393 248L844 640L904 535L465 171ZM904 535H847V639H904V535ZM844 536L393 926L465 1003L904 639L844 536Z" />
</font>
</defs>
</svg>
