<?xml version="1.0" standalone="no"?>
<!DOCTYPE svg PUBLIC "-//W3C//DTD SVG 1.1//EN" "http://www.w3.org/Graphics/SVG/1.1/DTD/svg11.dtd">
<svg xmlns="http://www.w3.org/2000/svg">
<defs >
<font id="Trispace" horiz-adv-x="1241" ><font-face
    font-family="Trispace Thin Medium"
    units-per-em="2000"
    panose-1="0 0 0 0 0 0 0 0 0 0"
    ascent="1830"
    descent="-430"
    alphabetic="0" />
<glyph unicode=" " horiz-adv-x="1000" />
<glyph unicode="!" horiz-adv-x="1000" d="M419 428L379 1400H656L617 428H419ZM386 251H645V0H386V251Z" />
<glyph unicode="&quot;" horiz-adv-x="1300" d="M617 919L567 1400H820L771 919H617ZM774 919L724 1400H977L928 919H774Z" />
<glyph unicode="#" horiz-adv-x="1800" d="M1021 0L1183 1400H1397L1235 0H1021ZM144 357L166 536H1514L1491 357H144ZM352 0L514 1400H728L566 0H352ZM210 864L232 1043H1580L1557 864H210Z" />
<glyph unicode="$" horiz-adv-x="1300" d="M575 0V303H759V0H575ZM575 1131V1400H759V1131H575ZM666 184Q554 184 464 206T307 269T202 363L392 489Q409 462 436 439T499 400T580 375T674 367Q721 367 763 374T837 397T888 438T907 499Q907 541 868 567T761 611T602
641Q534 651 468 671T348 725T262 813T230 941Q230 1003 255 1050T325 1131T428 1187T550 1219T679 1230Q788 1230 873 1204T1016 1137T1101 1055L917 935Q903 960 879 981T821 1017T748 1041T666 1050Q631 1050 594 1045T524 1027T471 993T451 940Q451 901 484
877T575 837T707 810Q759 802 817 790T932 758T1034 706T1107 627T1135 513Q1135 444 1109 391T1038 298T932 234T804 197T666 184Z" />
<glyph unicode="%" horiz-adv-x="1300" d="M107 0L973 1400H1145L279 0H107ZM935 7Q870 7 813 33T721 118T686 274Q686 370 721 428T813 512T935 539Q999 539 1055 513T1147 428T1183 274Q1183 177 1148 119T1056 34T935 7ZM935 131Q963 131 986 144T1023 188T1037
274Q1037 327 1023 358T986 402T935 415Q906 415 883 402T845 358T831 274Q831 220 845 189T882 144T935 131ZM324 847Q259 847 203 873T111 958T75 1114Q75 1210 110 1268T202 1352T324 1379Q389 1379 445 1353T537 1268T572 1114Q572 1017 537 959T446 874T324
847ZM324 971Q352 971 375 984T413 1028T427 1114Q427 1167 413 1198T376 1242T324 1255Q295 1255 272 1242T235 1198T221 1114Q221 1060 235 1029T272 984T324 971Z" />
<glyph unicode="&amp;" horiz-adv-x="1700" d="M735 -16Q580 -16 463 31T280 166T214 377Q214 469 253 538T360 661T513 758T690 841Q796 887 851 926T926 1007T946 1103Q946 1145 933 1172T897 1216T846 1238T789 1245Q759 1245 732 1237T683 1213T648 1170T635
1106Q635 1068 652 1026T695 944T745 871T785 818L1462 0H1216L640 691Q609 729 574 775T509 873T460 984T441 1105Q441 1183 470 1240T548 1336T660 1393T790 1412Q860 1412 923 1394T1037 1339T1116 1242T1145 1101Q1145 1009 1104 935T982 801T785 690Q713 659
652 628T546 560T475 481T450 384Q450 339 468 299T523 228T615 180T746 163Q821 163 891 180T1021 231T1124 318T1194 438T1219 591H1432Q1432 484 1395 391T1292 224T1138 95T948 13T735 -16Z" />
<glyph unicode="&apos;" horiz-adv-x="1000" d="M441 919L391 1400H644L595 919H441Z" />
<glyph unicode="(" horiz-adv-x="1300" d="M858 -456Q832 -430 786 -376T686 -237T585 -34T506 239T475 588Q475 782 506 937T585 1210T687 1412T787 1550T860 1629L1041 1507Q1023 1490 985 1444T901 1322T813 1138T744 894T717 588Q717 420 743 284T811 40T898
-143T981 -266T1039 -333L858 -456Z" />
<glyph unicode=")" horiz-adv-x="1300" d="M447 -456L266 -333Q286 -314 324 -267T407 -143T494 40T562 283T589 588Q589 757 562 894T493 1138T406 1321T322 1444T264 1507L445 1629Q471 1603 518 1550T618 1413T720 1210T800 937T831 588Q831 394 800 240T721
-33T620 -237T520 -376T447 -456Z" />
<glyph unicode="*" horiz-adv-x="1300" d="M714 1018L567 1245L673 1329L844 1110L714 1018ZM482 1018L352 1110L524 1329L629 1245L482 1018ZM567 1245L284 1321L337 1477L598 1384L567 1245ZM598 1238Q564 1238 540 1259T516 1310Q516 1339 540 1363T598 1387Q631
1387 654 1363T678 1310Q678 1280 655 1259T598 1238ZM524 1329L513 1600H685L673 1329H524ZM629 1245L598 1384L859 1477L912 1321L629 1245Z" />
<glyph unicode="+" horiz-adv-x="1300" d="M508 210V1004H704V210H508ZM208 510V706H1002V510H208Z" />
<glyph unicode="," horiz-adv-x="1000" d="M430 -286L331 -161Q363 -146 389 -127T431 -77T447 5L614 0Q614 -84 584 -141T511 -234T430 -286ZM347 0V251H614V0H347Z" />
<glyph unicode="-" horiz-adv-x="1300" d="M342 510V706H958V510H342Z" />
<glyph unicode="." horiz-adv-x="1000" d="M365 251H623V0H365V251Z" />
<glyph unicode="/" horiz-adv-x="868" d="M79 -284L577 1600H798L300 -284H79Z" />
<glyph unicode="0" horiz-adv-x="1300" d="M645 -22Q548 -22 459 14T301 132T191 353T151 696Q151 899 191 1037T300 1258T459 1376T645 1412Q739 1412 827 1376T985 1258T1096 1038T1137 696Q1137 492 1096 354T985 133T827 14T645 -22ZM645 156Q694 156 737
183T815 273T868 439T887 696Q887 848 868 951T815 1116T738 1206T645 1234Q595 1234 551 1207T473 1117T420 951T401 696Q401 543 420 440T472 274T550 184T645 156Z" />
<glyph unicode="1" horiz-adv-x="1300" d="M219 0V182H527V1182L224 1095V1302L560 1400H769V182H1077V0H219Z" />
<glyph unicode="2" horiz-adv-x="1300" d="M144 0V178Q173 199 223 238T337 331T467 448T598 580T712 720T793 860T823 991Q823 1054 807 1099T762 1171T693 1211T608 1224Q542 1224 490 1191T403 1106T352 992L142 1087Q170 1190 239 1263T404 1374T610 1412Q708
1412 792 1390T938 1319T1036 1189T1072 992Q1072 909 1034 820T932 644T797 479T656 338T536 234T464 181H1064V0H144Z" />
<glyph unicode="3" horiz-adv-x="1300" d="M638 -22Q510 -22 411 14T245 115T149 263L358 370Q378 312 415 266T508 195T640 169Q714 169 774 201T868 295T903 451Q903 521 883 570T830 653T753 701T664 716Q639 716 614 712T564 699T517 679L381 824L794 1218H209V1400H1083V1218L667
834Q686 845 722 851T793 858Q852 858 912 835T1024 763T1107 637T1138 452Q1138 336 1100 248T993 99T834 9T638 -22Z" />
<glyph unicode="4" horiz-adv-x="1300" d="M728 0V302H135V483L580 1400H968V483H1173V302H968V0H728ZM377 483H728V1238H736L377 483Z" />
<glyph unicode="5" horiz-adv-x="1300" d="M615 -22Q489 -22 394 17T235 120T142 259L349 364Q360 324 391 279T479 201T617 169Q696 169 754 203T844 304T876 467Q876 557 842 618T752 712T629 744Q565 744 513 723T422 664T365 578L263 639Q278 706 316 760T413
854T543 913T695 934Q805 934 900 884T1053 732T1111 472Q1111 346 1071 253T962 99T803 8T615 -22ZM365 578L165 646L263 1400H1026V1218H448L365 578Z" />
<glyph unicode="6" horiz-adv-x="1300" d="M615 -22Q510 -22 419 17T260 138T155 349T117 656Q117 837 161 978T285 1216T468 1362T691 1412Q794 1412 864 1385T976 1322T1034 1257L884 1122Q873 1140 850 1165T788 1208T687 1227Q615 1227 554 1189T449 1076T380
890T355 633Q355 500 374 410T430 266T514 189T617 166Q687 166 745 202T837 308T871 475Q871 573 839 634T752 724T631 753Q583 753 537 735T454 683T392 599T360 486L224 537Q238 629 281 703T388 830T529 911T687 939Q800 939 895 888T1048 736T1105 482Q1105
370 1070 278T969 118T814 14T615 -22Z" />
<glyph unicode="7" horiz-adv-x="1300" d="M510 0Q510 136 529 280T583 566T662 834T756 1060T856 1218H233V1400H1108V1218Q1049 1144 998 1041T903 815T829 557T781 280T764 0H510Z" />
<glyph unicode="8" horiz-adv-x="1300" d="M646 -22Q505 -22 392 25T213 164T146 392Q146 507 193 586T315 714T477 785T646 807Q726 807 812 785T974 714T1096 586T1143 392Q1143 256 1077 164T899 25T646 -22ZM646 166Q709 166 767 190T863 267T901 406Q901
496 863 549T767 625T646 649Q583 649 524 625T426 548T388 406Q388 320 426 267T523 190T646 166ZM646 667Q572 667 495 691T351 764T243 882T202 1043Q202 1133 236 1202T331 1318T472 1390T646 1414Q737 1414 817 1390T958 1319T1053 1202T1088 1043Q1088 952
1047 882T940 764T797 692T646 667ZM646 825Q740 825 799 880T859 1030Q859 1082 840 1119T790 1180T720 1215T646 1226Q607 1226 569 1215T500 1181T450 1120T431 1030Q431 935 492 880T646 825Z" />
<glyph unicode="9" horiz-adv-x="1300" d="M563 -22Q460 -22 390 5T278 68T220 133L370 268Q381 250 404 225T466 182T567 163Q639 163 700 201T805 314T874 500T899 757Q899 889 880 978T824 1122T740 1200T637 1224Q567 1224 509 1188T417 1082T383 915Q383
817 415 756T502 666T623 637Q671 637 716 656T800 710T864 796T900 910L1030 853Q1016 761 973 687T866 560T725 479T567 451Q454 451 359 502T206 654T149 908Q149 1020 184 1112T285 1272T441 1376T639 1412Q744 1412 835 1373T994 1252T1099 1041T1137 734Q1137
553 1093 412T969 174T786 28T563 -22Z" />
<glyph unicode=":" horiz-adv-x="1000" d="M334 1000H592V749H334V1000ZM590 251H848V0H590V251Z" />
<glyph unicode=";" horiz-adv-x="1000" d="M366 1000H624V749H366V1000ZM434 -286L335 -161Q367 -146 393 -127T435 -77T451 5L618 0Q618 -84 588 -141T515 -234T434 -286ZM351 0V251H618V0H351Z" />
<glyph unicode="&lt;" horiz-adv-x="1300" d="M967 1070L1060 918L360 469V577L1060 128L967 -24L259 440V606L967 1070Z" />
<glyph unicode="=" horiz-adv-x="1300" d="M200 694V890H994V694H200ZM200 326V522H994V326H200Z" />
<glyph unicode="&gt;" horiz-adv-x="1300" d="M276 -24L183 128L883 577V469L183 918L276 1070L984 606V440L276 -24Z" />
<glyph unicode="?" horiz-adv-x="1300" d="M463 410V457Q463 526 483 582T536 684T608 769T687 843Q725 878 757 911T809 979T829 1052Q829 1099 812 1130T764 1181T697 1208T617 1217Q569 1217 522 1203T435 1161T363 1097T315 1017L126 1125Q152 1198 221 1264T390
1371T612 1412Q704 1412 786 1393T931 1333T1030 1224T1066 1061Q1066 992 1037 937T961 835T865 746Q818 704 775 660T704 565T677 451V410H463ZM442 251H700V0H442V251Z" />
<glyph unicode="@" horiz-adv-x="1700" d="M726 -18Q648 -18 560 1T388 66T236 184T126 365T85 617Q85 774 128 900T251 1123T439 1283T678 1379T952 1412Q1086 1412 1205 1378T1416 1270T1560 1079T1613 796Q1613 688 1583 596T1496 433T1362 323T1191 284Q1132
284 1089 299T1021 346T990 425Q981 396 951 370T876 328T779 311Q729 311 680 328T590 383T525 483T501 637Q501 738 531 820T616 962T750 1053T923 1085Q973 1085 1017 1078T1096 1059T1151 1035Q1142 958 1133 873T1117 711T1105 580T1100 509Q1100 473 1109
449T1138 414T1191 403Q1257 403 1301 437T1371 529T1408 655T1419 794Q1419 905 1387 989T1291 1130T1140 1215T939 1244Q831 1244 732 1219T551 1143T408 1019T314 849T280 634Q280 520 313 431T409 280T561 184T764 151Q860 151 914 170T984 201L1076 49Q1062
40 1019 24T904 -5T726 -18ZM818 469Q853 469 880 487T926 538T950 614Q951 622 954 654T962 731T971 824T980 913Q972 916 948 920T889 925Q834 925 797 902T736 840T702 751T691 647Q691 588 703 553T734 499T775 475T818 469Z" />
<glyph unicode="A" horiz-adv-x="1300" d="M1201 0H953L873 336H431L351 0H103L456 1400H848L1201 0ZM639 1218L468 518H836L665 1218H639Z" />
<glyph unicode="B" horiz-adv-x="1300" d="M202 0V1400H680Q730 1400 788 1393T904 1366T1008 1308T1083 1209T1111 1058Q1111 956 1074 887T986 780T891 735Q930 731 978 710T1070 649T1142 547T1171 396Q1171 267 1121 179T982 46T773 0H202ZM444 182H689Q758
182 812 205T896 278T927 412Q927 499 891 547T800 613T688 632H444V182ZM444 812H654Q714 812 764 835T844 905T874 1024Q874 1082 858 1119T812 1179T741 1209T647 1218H444V812Z" />
<glyph unicode="C" horiz-adv-x="1300" d="M697 -22Q612 -22 527 1T367 77T233 212T142 416T108 696Q108 856 141 975T234 1178T369 1313T530 1388T701 1412Q787 1412 861 1389T996 1322T1103 1218T1178 1082L965 975Q951 1017 929 1061T875 1143T800 1204T700
1227Q636 1227 575 1198T464 1104T385 939T356 696Q356 554 385 453T463 287T572 193T697 163Q754 163 797 186T873 247T927 328T965 410L1178 303Q1149 231 1103 172T996 69T860 2T697 -22Z" />
<glyph unicode="D" horiz-adv-x="1300" d="M174 0V1400H567Q638 1400 710 1389T851 1349T977 1271T1081 1144T1150 957T1175 700Q1175 553 1151 444T1081 257T978 129T851 51T711 12T567 0H174ZM416 182H548Q629 182 698 207T819 292T898 451T927 700Q927 849
899 949T819 1108T699 1192T548 1218H416V182Z" />
<glyph unicode="E" horiz-adv-x="1300" d="M217 0V1400H1118V1218H459V778H1042V598H459V182H1118V0H217Z" />
<glyph unicode="F" horiz-adv-x="1300" d="M267 0V1400H1112V1218H509V698H1017V516H509V0H267Z" />
<glyph unicode="G" horiz-adv-x="1300" d="M687 -22Q606 -22 523 1T365 75T231 209T137 413T103 696Q103 856 136 975T228 1178T361 1313T518 1388T683 1412Q779 1412 860 1389T1003 1324T1107 1223T1164 1095L941 1006Q931 1049 910 1088T857 1159T780 1209T679
1227Q630 1227 582 1208T491 1150T416 1048T364 898T345 696Q345 552 374 450T453 285T564 193T689 163Q751 163 801 185T889 254T946 372T967 541H671V726H1197V603Q1197 469 1170 367T1095 191T982 70T843 1T687 -22Z" />
<glyph unicode="H" horiz-adv-x="1300" d="M153 0V1400H395V818H904V1400H1146V0H904V638H395V0H153Z" />
<glyph unicode="I" horiz-adv-x="1300" d="M243 0V182H528V1218H243V1400H1057V1218H770V182H1057V0H243Z" />
<glyph unicode="J" horiz-adv-x="1300" d="M607 -22Q505 -22 418 9T266 110T164 290T127 561H371Q371 428 398 341T479 212T607 169Q682 169 734 211T814 341T842 561V1218H309V1400H1084V539Q1084 388 1048 281T948 108T797 10T607 -22Z" />
<glyph unicode="K" horiz-adv-x="1300" d="M175 0V1400H417V808H500L882 1400H1144L661 672V766L1166 0H902L499 628H417V0H175Z" />
<glyph unicode="L" horiz-adv-x="1000" d="M140 0V1400H383V182H905V0H140Z" />
<glyph unicode="M" horiz-adv-x="1700" d="M804 151L868 476L1135 1400H1271L1270 1191L954 151H804ZM115 0L247 1400H471L363 0H115ZM743 151L427 1191L428 1400H562L833 476L891 151H743ZM1334 0L1226 1400H1450L1582 0H1334Z" />
<glyph unicode="N" horiz-adv-x="1300" d="M135 0V1400H493L960 207H917V1400H1159V0H849L367 1189H377V0H135Z" />
<glyph unicode="O" horiz-adv-x="1300" d="M648 -22Q560 -22 476 3T320 83T192 221T105 424T73 696Q73 849 104 967T191 1169T319 1307T476 1386T648 1412Q735 1412 818 1387T974 1308T1102 1170T1189 967T1220 696Q1220 542 1189 424T1103 222T974 83T818 4T648
-22ZM648 163Q710 163 768 193T873 287T947 452T974 696Q974 837 947 938T874 1103T769 1197T648 1227Q585 1227 526 1197T421 1103T347 938T319 696Q319 554 346 453T420 287T526 193T648 163Z" />
<glyph unicode="P" horiz-adv-x="1300" d="M212 0V1400H643Q698 1400 764 1389T896 1349T1017 1267T1105 1131T1138 927Q1138 806 1105 722T1017 583T897 499T765 456T643 444H455V0H212ZM455 626H621Q666 626 713 638T800 683T866 775T891 926Q891 1019 866 1076T801
1164T713 1207T621 1218H455V626Z" />
<glyph unicode="Q" horiz-adv-x="1300" d="M551 -325V0H752V-177L722 -147H1119V-325H551ZM648 -22Q560 -22 476 3T320 83T192 221T105 424T73 696Q73 849 104 967T191 1169T319 1307T476 1386T648 1412Q735 1412 818 1387T974 1308T1102 1170T1189 967T1220 696Q1220
542 1189 424T1103 222T974 83T818 4T648 -22ZM648 163Q710 163 768 193T873 287T947 452T974 696Q974 837 947 938T874 1103T769 1197T648 1227Q585 1227 526 1197T421 1103T347 938T319 696Q319 554 346 453T420 287T526 193T648 163Z" />
<glyph unicode="R" horiz-adv-x="1300" d="M198 0V1400H721Q774 1400 834 1390T950 1354T1051 1284T1123 1172T1150 1009Q1150 910 1121 840T1045 723T939 651T823 615T715 605H440V0H198ZM917 0L657 671L895 696L1175 0H917ZM440 779H674Q738 779 791 801T876
872T908 1003Q908 1088 875 1134T788 1199T669 1218H440V779Z" />
<glyph unicode="S" horiz-adv-x="1300" d="M649 -22Q521 -22 413 15T227 122T119 286L351 385Q372 324 416 275T523 196T665 166Q744 166 801 190T889 261T921 371Q921 420 893 459T818 528T712 581T588 622Q496 648 418 682T283 766T193 883T161 1043Q161 1119
189 1178T266 1281T380 1354T517 1397T665 1412Q785 1412 885 1377T1055 1281T1150 1142L921 1042Q902 1098 865 1139T775 1202T656 1224Q608 1224 565 1213T487 1180T434 1126T414 1051Q414 990 448 947T543 873T687 820Q753 802 821 778T953 719T1065 639T1144
532T1173 389Q1173 302 1145 235T1066 119T949 39T806 -7T649 -22Z" />
<glyph unicode="T" horiz-adv-x="1300" d="M528 0V1218H133V1400H1167V1218H770V0H528Z" />
<glyph unicode="U" horiz-adv-x="1300" d="M652 -22Q549 -22 458 8T297 104T187 276T147 536V1400H389V547Q389 414 420 331T511 208T652 169Q735 169 793 208T882 330T913 547V1400H1155V536Q1155 383 1116 277T1007 104T847 8T652 -22Z" />
<glyph unicode="V" horiz-adv-x="1300" d="M441 0L92 1400H340L632 182H642L933 1400H1182L831 0H441Z" />
<glyph unicode="W" horiz-adv-x="1700" d="M1077 0L849 1076L818 1393H957L1231 158L1201 0H1077ZM314 0L75 1400H330L491 166L514 0H314ZM490 0L466 158L741 1393H882L857 1076L622 0H490ZM1177 0L1205 166L1370 1400H1625L1385 0H1177Z" />
<glyph unicode="X" horiz-adv-x="1300" d="M97 0L408 690L97 1400H363L622 782H656L924 1400H1190L871 690L1190 0H924L656 602H623L363 0H97Z" />
<glyph unicode="Y" horiz-adv-x="1300" d="M520 0V492L104 1400H355L640 717L925 1400H1176L762 492V0H520Z" />
<glyph unicode="Z" horiz-adv-x="1300" d="M200 0V182L837 1218H216V1400H1081V1218L442 182H1099V0H200Z" />
<glyph unicode="[" horiz-adv-x="1300" d="M462 -415V1615H990V1418H704V-218H990V-415H462Z" />
<glyph unicode="\" horiz-adv-x="869" d="M577 -284L79 1600H301L799 -284H577Z" />
<glyph unicode="]" horiz-adv-x="1300" d="M836 -415H308V-218H594V1418H308V1615H836V-415Z" />
<glyph unicode="^" horiz-adv-x="1300" d="M312 1120L513 1600H779L980 1120H781L654 1433H638L511 1120H312Z" />
<glyph unicode="_" horiz-adv-x="1300" d="M-5 -296V-100H1305V-296H-5Z" />
<glyph unicode="`" horiz-adv-x="1300" d="M627 1124L290 1416H547L849 1124H627Z" />
<glyph unicode="a" horiz-adv-x="1300" d="M536 -22Q452 -22 381 -1T258 63T176 166T147 308Q147 375 171 427T238 516T333 578T446 613T565 624Q634 624 690 611T786 577T843 537V659Q843 707 824 740T771 795T694 825T603 835Q553 835 507 826T420 803T348 773T294
741L189 920Q225 945 290 968T440 1008T617 1024Q682 1024 748 1014T874 981T981 920T1056 825T1084 689V182H1225V0H892L866 126Q849 94 806 60T696 2T536 -22ZM602 159Q667 159 716 178T797 226T843 277V379Q828 402 791 423T707 459T609 474Q554 474 502 459T417
410T384 319Q384 262 411 227T488 176T602 159Z" />
<glyph unicode="b" horiz-adv-x="1300" d="M201 0V1500H445V219L415 0H201ZM738 -22Q644 -22 571 19T448 124T373 260T347 397L440 428Q444 379 462 332T510 249T582 191T672 169Q742 169 799 206T891 317T925 502Q925 613 893 686T804 795T679 831Q629 831 589
811T517 758T466 682T436 596L350 627Q350 690 376 758T454 887T579 984T748 1022Q856 1022 952 967T1107 797T1167 502Q1167 367 1131 268T1034 105T896 10T738 -22Z" />
<glyph unicode="c" horiz-adv-x="1300" d="M702 -22Q630 -22 558 -3T420 55T305 157T225 304T196 502Q196 615 225 701T304 848T420 948T557 1005T702 1024Q784 1024 853 1005T979 951T1076 870T1138 769L925 670Q914 709 887 749T816 816T708 843Q661 843 615
824T531 765T470 659T447 502Q447 411 470 347T531 241T615 179T708 159Q772 159 816 184T887 248T924 323L1137 223Q1115 174 1076 130T980 51T855 -2T702 -22Z" />
<glyph unicode="d" horiz-adv-x="1300" d="M530 -22Q449 -22 373 9T235 105T137 268T101 502Q101 682 161 797T316 967T520 1022Q615 1022 689 985T814 887T892 759T919 627L832 596Q823 639 803 681T751 757T680 811T589 831Q520 831 465 795T376 686T343 502Q343
391 377 317T468 206T596 169Q646 169 686 190T757 248T806 332T828 428L921 397Q921 333 896 261T821 124T698 19T530 -22ZM1067 1500V73L958 182H1218V0H853L824 208V1500H1067Z" />
<glyph unicode="e" horiz-adv-x="1300" d="M653 -22Q557 -22 466 10T303 107T187 270T144 502Q144 635 187 733T303 896T467 992T656 1024Q756 1024 847 994T1009 904T1120 753T1161 541Q1161 521 1159 496T1154 453H337V602H909Q909 606 909 608T909 615Q909
683 876 734T786 815T660 844Q611 844 563 825T476 765T414 660T391 504Q391 392 428 315T528 199T666 159Q735 159 783 182T861 237T903 299L1122 192Q1097 147 1055 109T953 41T819 -5T653 -22Z" />
<glyph unicode="f" horiz-adv-x="1000" d="M312 0V1124Q312 1240 350 1316T452 1437T591 1499T741 1518Q811 1518 861 1507T937 1480V1296Q912 1311 874 1323T774 1336Q733 1336 694 1327T623 1292T573 1218T554 1092V0H312ZM63 818V1000H921V818H63Z" />
<glyph unicode="g" horiz-adv-x="1300" d="M643 -426Q545 -426 463 -400T321 -328T228 -220T195 -83H437Q437 -106 449 -133T487 -184T553 -225T649 -241Q724 -241 776 -205T856 -103T884 54V794L895 1000H1126V65Q1126 -31 1103 -109T1036 -246T934 -345T801
-405T643 -426ZM592 -22Q511 -22 435 9T297 105T199 268T163 502Q163 682 223 797T378 967T582 1022Q677 1022 751 985T876 887T954 759T981 627L894 596Q885 639 865 681T813 757T742 811T651 831Q582 831 527 795T438 686T405 502Q405 391 439 317T530 206T658
169Q708 169 748 190T819 248T868 332T890 428L983 397Q983 333 958 261T883 124T760 19T592 -22Z" />
<glyph unicode="h" horiz-adv-x="1300" d="M213 0V1500H455V0H213ZM868 0V561Q868 658 849 717T788 804T682 831Q636 831 596 813T523 764T472 691T449 604L390 628Q390 700 413 770T484 897T602 989T765 1023Q844 1023 907 999T1015 923T1085 792T1110 599V0H868Z" />
<glyph unicode="i" horiz-adv-x="1000" d="M79 0V182H393V818H123V1000H635V182H930V0H79ZM388 1423H637V1172H388V1423Z" />
<glyph unicode="j" horiz-adv-x="1000" d="M87 -400V-209H164Q233 -209 286 -192T378 -139T437 -49T457 79V818H113V1000H699V37Q699 -73 661 -155T554 -291T391 -373T183 -400H87ZM451 1423H700V1172H451V1423Z" />
<glyph unicode="k" horiz-adv-x="1300" d="M231 0V1500H475V616H612V435H475V0H231ZM896 0L422 542L675 564L1185 0H896ZM677 500L448 552L889 1000H1177L677 500Z" />
<glyph unicode="l" horiz-adv-x="1000" d="M74 0V182H370V1318H126V1500H613V182H915V0H74Z" />
<glyph unicode="m" horiz-adv-x="1700" d="M1345 0V602Q1345 717 1306 774T1174 831Q1116 831 1068 799T990 718T957 615L875 636Q876 709 906 778T990 902T1115 990T1268 1023Q1375 1023 1445 981T1551 852T1587 627V0H1345ZM90 0V1000H309L332 800V0H90ZM717
0V602Q717 717 677 774T546 831Q488 831 440 799T363 718T331 615L249 636Q249 709 279 778T364 902T489 990T640 1023Q800 1023 879 932T959 655V0H717Z" />
<glyph unicode="n" horiz-adv-x="1300" d="M205 0V1000H420L448 793V0H205ZM860 0V561Q860 658 841 717T780 804T674 831Q628 831 588 813T515 764T464 691T441 604L382 628Q382 700 405 770T476 897T594 989T757 1023Q836 1023 899 999T1008 923T1078 792T1103
599V0H860Z" />
<glyph unicode="o" horiz-adv-x="1300" d="M655 -22Q587 -22 516 -5T379 51T260 150T177 299T146 502Q146 617 177 704T260 852T378 951T516 1006T655 1024Q723 1024 794 1007T931 951T1049 852T1132 704T1163 502Q1163 386 1133 299T1050 151T931 51T794 -4T655
-22ZM655 159Q701 159 747 177T832 235T894 341T917 502Q917 596 894 661T833 767T748 825T655 843Q609 843 563 825T478 767T416 662T392 502Q392 407 415 341T477 236T562 178T655 159Z" />
<glyph unicode="p" horiz-adv-x="1300" d="M183 -400V1000H398L425 824V-400H183ZM720 -22Q625 -22 552 19T429 124T354 260T329 397L422 428Q426 379 444 332T492 249T563 191T654 169Q724 169 781 206T873 317T907 502Q907 613 874 686T786 795T661 831Q611
831 571 811T499 758T448 682T418 596L331 627Q331 690 358 758T435 887T560 984T730 1022Q838 1022 934 967T1089 797T1149 502Q1149 367 1113 268T1016 105T878 10T720 -22Z" />
<glyph unicode="q" horiz-adv-x="1300" d="M1083 -400H841V824L868 1000H1083V-400ZM546 -22Q465 -22 389 9T251 105T153 268T117 502Q117 682 177 797T332 967T536 1022Q631 1022 705 985T830 887T908 759T935 627L848 596Q839 639 819 681T767 757T696 811T605
831Q536 831 481 795T392 686T359 502Q359 391 393 317T484 206T612 169Q662 169 702 190T773 248T822 332T844 428L937 397Q937 333 912 261T837 124T714 19T546 -22Z" />
<glyph unicode="r" horiz-adv-x="1300" d="M239 0V182H442V818H239V1000H633L684 757V182H917V0H239ZM679 580L592 620Q593 686 617 746T682 857T777 945T892 1003T1015 1024Q1085 1024 1119 1013T1164 993L1112 790Q1104 797 1072 807T986 817Q933 817 883 797T791
743T719 667T679 580Z" />
<glyph unicode="s" horiz-adv-x="1300" d="M649 -22Q537 -22 447 0T290 63T185 157L375 283Q392 256 419 233T482 194T562 169T657 161Q704 161 746 168T820 191T871 232T890 293Q890 335 851 361T744 405T585 435Q517 445 451 465T331 519T245 607T213 735Q213
797 238 844T308 925T411 981T533 1013T662 1024Q771 1024 856 998T999 931T1084 849L899 729Q886 754 862 775T804 811T731 835T649 844Q614 844 577 839T507 821T454 787T433 734Q433 695 466 671T558 631T690 604Q742 596 800 584T915 552T1017 500T1090 421T1118
307Q1118 238 1092 185T1021 92T915 28T787 -9T649 -22Z" />
<glyph unicode="t" horiz-adv-x="1300" d="M368 296V1317H609V302Q609 242 625 208T669 159T732 144Q768 144 798 158T848 207T867 309H1060Q1060 217 1031 154T952 52T837 -3T703 -20Q633 -20 572 -4T465 49T394 146T368 296ZM131 818V1000H1073V818H131Z" />
<glyph unicode="u" horiz-adv-x="1300" d="M522 -23Q444 -23 381 1T272 77T202 208T177 401V1000H419V439Q419 342 438 283T499 196T605 169Q651 169 691 187T764 236T815 309T838 396L897 372Q897 300 874 230T803 103T685 11T522 -23ZM882 0L833 225V1000H1075V129L1033
182H1191V0H882Z" />
<glyph unicode="v" horiz-adv-x="1300" d="M459 0L127 1000H383L635 197H653L905 1000H1161L829 0H459Z" />
<glyph unicode="w" horiz-adv-x="1700" d="M1069 0L807 1000H981L1244 0H1069ZM314 0L115 1000H358L518 0H314ZM457 0L718 1000H893L632 0H457ZM1182 0L1342 1000H1585L1386 0H1182Z" />
<glyph unicode="x" horiz-adv-x="1300" d="M103 0L454 501L103 1000H373L653 592H644L923 1000H1193L843 501L1193 0H923L644 412H653L373 0H103Z" />
<glyph unicode="y" horiz-adv-x="1300" d="M425 -400L603 52L679 -5H503L142 1000H392L678 132H636L923 1000H1168L666 -400H425Z" />
<glyph unicode="z" horiz-adv-x="1300" d="M211 0V182L764 818H227V1000H1037V818L489 182H1045V0H211Z" />
<glyph unicode="{" horiz-adv-x="1300" d="M323 589V691H342Q398 691 430 716T475 790T489 911V1265Q489 1354 518 1421T600 1535T726 1605T886 1629H964V1446H918Q853 1446 808 1426T740 1354T716 1208V836Q716 748 690 698T621 624T532 595T446 589H323ZM886
-446Q799 -446 726 -423T600 -353T518 -238T489 -82V273Q489 344 476 393T430 467T342 492H323V595H446Q485 595 531 589T620 560T689 486T716 347V-25Q716 -119 739 -171T808 -243T918 -263H964V-446H886Z" />
<glyph unicode="|" horiz-adv-x="1300" d="M552 -360V1600H751V-360H552Z" />
<glyph unicode="}" horiz-adv-x="1300" d="M963 589H840Q801 589 755 595T666 624T597 697T570 836V1208Q570 1302 547 1354T478 1426T368 1446H323V1629H401Q488 1629 560 1606T686 1536T768 1422T797 1265V911Q797 839 810 790T856 716T944 691H963V589ZM401
-446H323V-263H368Q433 -263 478 -243T546 -171T570 -25V347Q570 436 597 486T666 559T754 589T840 595H963V492H944Q889 492 857 467T811 393T797 273V-82Q797 -170 768 -238T686 -352T561 -422T401 -446Z" />
<glyph unicode="~" horiz-adv-x="1300" d="M736 640Q675 640 636 659T567 704T511 750T445 770Q388 770 346 735T285 666L161 771Q166 783 186 808T242 862T325 909T434 929Q496 929 535 909T603 863T659 817T725 797Q782 797 822 832T881 901L1005 794Q999 781
979 756T925 705T844 659T736 640Z" />
<glyph unicode="&#xa0;" horiz-adv-x="1000" />
<glyph unicode="&#xa1;" horiz-adv-x="1000" d="M591 572L630 -400H353L392 572H591ZM623 749H365V1000H623V749Z" />
<glyph unicode="&#xa2;" horiz-adv-x="1300" d="M665 170Q561 170 467 198T300 289T185 451T142 694Q142 839 184 939T299 1100T466 1188T665 1216Q807 1216 917 1156T1100 965L896 861Q874 905 841 942T763 1002T654 1025Q600 1025 552 1008T465 952T405 850T383
694Q383 603 405 540T465 437T551 379T654 361Q716 361 763 382T845 438T900 510L1104 405Q1057 326 991 274T843 196T665 170ZM548 0V235H749V0H548ZM548 1160V1400H749V1160H548Z" />
<glyph unicode="&#xa3;" horiz-adv-x="1300" d="M87 606V786H900V606H87ZM349 131H134Q164 155 195 192T252 277T295 379T311 490Q311 554 296 617T262 744Q242 808 227 874T212 1010Q212 1101 250 1175T355 1302T509 1383T693 1412Q807 1412 886 1381T1017 1303T1095
1206L915 1097Q897 1131 867 1157T794 1199T693 1215Q652 1215 611 1204T537 1166T484 1096T464 987Q464 935 476 880T504 769Q522 708 536 646T550 520Q550 423 526 349T457 222T349 131ZM222 -33L134 131Q136 131 158 132T216 136T288 140T358 146Q377 158 408
172T483 196T583 206Q625 206 656 200T715 185Q744 176 773 170T840 163Q897 163 941 174T1015 196L1074 5Q1045 -4 981 -15T840 -26Q788 -26 741 -18T650 1Q613 11 577 17T503 23Q444 23 383 12T278 -13T222 -33Z" />
<glyph unicode="&#xa4;" horiz-adv-x="1300" d="M657 338Q574 338 496 360T356 429T256 554T219 740Q219 850 256 926T355 1050T496 1118T657 1140Q739 1140 816 1119T956 1050T1056 927T1093 740Q1093 631 1056 554T957 430T817 360T657 338ZM261 223L142 346L334
534L453 415L261 223ZM1053 226L861 418L979 536L1171 349L1053 226ZM657 526Q690 526 728 534T799 564T853 629T874 740Q874 808 853 849T799 913T728 944T657 952Q622 952 585 944T514 914T459 850T438 740Q438 672 459 630T513 565T584 534T657 526ZM334 948L142
1135L261 1258L453 1066L334 948ZM979 945L861 1063L1053 1254L1171 1133L979 945Z" />
<glyph unicode="&#xa5;" horiz-adv-x="1300" d="M241 497V655H1040V497H241ZM241 205V363H1040V205H241ZM520 0V492L104 1400H355L640 717L925 1400H1176L762 492V0H520Z" />
<glyph unicode="&#xa6;" horiz-adv-x="1300" d="M495 906V1600H695V906H495ZM495 -360V326H695V-360H495Z" />
<glyph unicode="&#xa7;" horiz-adv-x="1300" d="M579 -218Q463 -218 366 -189T202 -106T107 21L301 116Q316 79 351 43T442 -16T579 -39Q637 -39 684 -31T765 -5T817 41T835 108Q835 136 822 158T783 200T727 234T659 259T584 277Q535 285 478 300T365 340T262
401T187 489T159 610Q159 679 198 731T299 821T432 881T565 913L713 798Q703 800 692 800T668 801Q637 801 600 795T524 775T455 740T405 690T386 625Q386 590 405 562T456 511T527 474T609 451Q645 445 701 431T819 391T935 326T1024 231T1059 101Q1059 27 1031
-26T955 -117T845 -176T715 -208T579 -218ZM760 281L581 362Q618 366 654 378T724 410T783 455T824 511T839 576Q839 613 825 641T786 690T728 725T658 749T582 765Q543 772 492 787T387 828T288 894T215 988T187 1115Q187 1181 214 1230T288 1314T392 1370T508
1402T623 1412Q725 1412 814 1386T967 1310T1053 1188L861 1090Q841 1136 806 1168T723 1216T617 1232Q578 1232 540 1226T472 1206T423 1168T405 1106Q405 1073 423 1047T470 1003T536 972T611 952Q648 946 705 932T824 892T940 826T1029 728T1063 591Q1063 536
1044 491T994 411T922 350T840 307T760 281Z" />
<glyph unicode="&#xa8;" horiz-adv-x="1300" d="M264 1386H514V1136H264V1386ZM746 1386H996V1136H746V1386Z" />
<glyph unicode="&#xa9;" horiz-adv-x="1300" d="M645 102Q573 102 495 120T342 180T208 291T113 461T77 698Q77 834 112 934T208 1103T342 1213T494 1273T645 1292Q717 1292 795 1274T947 1214T1081 1103T1176 934T1212 698Q1212 562 1177 462T1082 292T948 181T795
121T645 102ZM659 388Q585 388 517 418T405 515T361 696Q361 810 405 877T517 974T659 1004Q728 1004 778 978T859 914T902 838L779 789Q767 821 735 847T655 874Q608 874 574 852T522 790T503 696Q503 643 521 603T574 541T655 519Q705 519 735 544T779 592L902
543Q888 507 856 472T774 412T659 388ZM645 240Q699 240 756 253T867 298T963 383T1031 513T1057 698Q1057 805 1032 882T964 1012T868 1096T757 1140T645 1154Q591 1154 533 1141T421 1096T324 1012T256 882T230 698Q230 591 255 514T324 383T421 299T533 254T645
240Z" />
<glyph unicode="&#xaa;" horiz-adv-x="1000" d="M423 1041Q335 1041 281 1085T226 1206Q226 1243 243 1272T292 1320T363 1348T447 1358Q501 1357 537 1343T586 1316V1346Q586 1384 551 1403T467 1423Q417 1423 370 1412T300 1391L256 1492Q283 1504 343 1516T476
1529Q538 1529 595 1511T688 1455T724 1361V1153H788V1052H612L597 1110Q589 1097 566 1081T507 1053T423 1041ZM465 1144Q506 1144 537 1159T579 1187V1242Q567 1251 538 1260T474 1270Q425 1270 398 1253T371 1206Q371 1175 395 1160T465 1144Z" />
<glyph unicode="&#xab;" horiz-adv-x="1300" d="M542 168L98 518L180 649L641 285L542 168ZM98 518V656H168V518H98ZM180 527L98 656L542 1006L641 889L180 527ZM1090 168L646 518L728 649L1189 285L1090 168ZM646 518V656H716V518H646ZM728 527L646 656L1090
1006L1189 889L728 527Z" />
<glyph unicode="&#xac;" horiz-adv-x="1300" d="M824 250V707H1017V250H824ZM302 510V706H918V510H302Z" />
<glyph unicode="&#xad;" horiz-adv-x="1300" d="M404 510V706H868V510H404Z" />
<glyph unicode="&#xae;" horiz-adv-x="1300" d="M635 397Q546 397 456 423T292 509T172 664T126 900Q126 1038 171 1134T291 1288T456 1373T635 1400Q723 1400 813 1374T977 1289T1097 1134T1142 900Q1142 761 1097 665T978 509T813 424T635 397ZM730 649L630
882L725 886L842 649H730ZM635 512Q695 512 760 529T882 588T975 706T1011 900Q1011 1016 976 1091T883 1209T760 1268T635 1285Q576 1285 510 1268T387 1209T293 1092T257 900Q257 782 292 707T385 589T508 529T635 512ZM468 649V1151H663Q701 1151 736 1139T795
1094T818 1003Q818 938 792 906T729 862T661 851H573V649H468ZM573 938H645Q679 938 698 954T718 1002Q718 1036 699 1051T645 1066H573V938Z" />
<glyph unicode="&#xaf;" horiz-adv-x="1300" d="M255 1278V1442H943V1278H255Z" />
<glyph unicode="&#xb0;" horiz-adv-x="1000" d="M528 1045Q461 1045 406 1078T318 1166T285 1288Q285 1354 317 1408T405 1496T528 1529Q594 1529 648 1496T736 1409T769 1288Q769 1221 736 1166T649 1078T528 1045ZM528 1186Q570 1186 599 1215T628 1288Q628
1330 599 1359T528 1388Q485 1388 455 1359T425 1288Q425 1245 455 1216T528 1186Z" />
<glyph unicode="&#xb1;" horiz-adv-x="1300" d="M198 664V828H1012V664H198ZM198 168V332H1012V168H198ZM507 438V1052H705V438H507Z" />
<glyph unicode="&#xb2;" horiz-adv-x="779" d="M71 560V695Q92 708 129 733T211 792T301 869T385 956T447 1049T471 1140Q471 1185 458 1212T421 1251T366 1263Q311 1263 276 1221T228 1126L65 1197Q82 1262 126 1309T232 1381T366 1407Q450 1407 516 1383T621
1302T659 1148Q659 1088 629 1026T553 908T459 806T371 732T318 698H656V560H71Z" />
<glyph unicode="&#xb3;" horiz-adv-x="780" d="M383 547Q302 547 239 570T134 633T73 726L234 807Q246 773 266 747T316 707T385 692Q423 692 453 709T500 759T517 837Q517 883 501 913T458 957T395 972Q376 972 354 967T315 952L212 1063L437 1261H106V1400H661V1261L428
1064Q433 1068 444 1070T470 1075T496 1077Q542 1077 589 1052T668 975T700 836Q700 765 676 711T609 621T507 566T383 547Z" />
<glyph unicode="&#xb4;" horiz-adv-x="1300" d="M522 1124H301L603 1416H860L522 1124Z" />
<glyph unicode="&#xb5;" horiz-adv-x="1300" d="M176 -400V1000H417V-400H176ZM522 -23Q444 -23 381 1T272 77T202 208T177 401V1000H419V439Q419 342 438 283T499 196T605 169Q651 169 691 187T764 236T815 309T838 396L897 372Q897 300 874 230T803 103T685
11T522 -23ZM882 0L833 225V1000H1075V129L1033 182H1191V0H882Z" />
<glyph unicode="&#xb6;" horiz-adv-x="1300" d="M549 -240V592H498Q443 592 378 613T255 683T159 810T122 1003Q122 1111 160 1186T259 1309T394 1378T538 1400H1094V-240H908V1218H735V-240H549Z" />
<glyph unicode="&#xb7;" horiz-adv-x="1000" d="M365 769H623V518H365V769Z" />
<glyph unicode="&#xb8;" horiz-adv-x="1300" d="M596 -410Q565 -410 534 -408T473 -400T416 -389T368 -376L423 -257Q456 -268 486 -275T548 -287T615 -292Q659 -292 692 -282T744 -252T762 -206Q762 -176 743 -166T693 -156Q674 -156 652 -162T609 -178T576 -200L453
-168L518 0H663L600 -154L586 -132Q598 -114 622 -99T680 -75T752 -66Q793 -66 829 -78T888 -119T911 -201Q911 -269 871 -316T760 -386T596 -410Z" />
<glyph unicode="&#xb9;" horiz-adv-x="781" d="M113 560V699H288V1232L117 1179V1338L314 1400H478V699H654V560H113Z" />
<glyph unicode="&#xba;" horiz-adv-x="1000" d="M746 1045Q679 1045 624 1078T536 1166T503 1288Q503 1354 535 1408T623 1496T746 1529Q812 1529 866 1496T954 1409T987 1288Q987 1221 954 1166T867 1078T746 1045ZM746 1186Q788 1186 817 1215T846 1288Q846
1330 817 1359T746 1388Q703 1388 673 1359T643 1288Q643 1245 673 1216T746 1186Z" />
<glyph unicode="&#xbb;" horiz-adv-x="1300" d="M762 168L663 285L1123 649L1206 518L762 168ZM1206 518H1136V656H1206V518ZM1123 527L663 889L762 1006L1206 656L1123 527ZM213 168L115 285L575 649L657 518L213 168ZM657 518H587V656H657V518ZM575 527L115
889L213 1006L657 656L575 527Z" />
<glyph unicode="&#xbc;" horiz-adv-x="1821" d="M113 560V699H288V1232L117 1179V1338L314 1400H478V699H654V560H113ZM569 0L1116 1400H1253L709 0H569ZM1471 0V168H1109V307L1365 840H1646V307H1761V168H1646V0H1471ZM1292 307H1471V735H1486L1292 307Z" />
<glyph unicode="&#xbd;" horiz-adv-x="1820" d="M113 560V699H288V1232L117 1179V1338L314 1400H478V699H654V560H113ZM569 0L1116 1400H1253L709 0H569ZM1112 0V135Q1133 148 1170 173T1252 232T1342 309T1426 396T1488 489T1512 580Q1512 625 1499 652T1462
691T1407 703Q1352 703 1317 661T1269 566L1106 637Q1123 702 1167 749T1273 821T1407 847Q1491 847 1557 823T1662 742T1700 588Q1700 528 1670 466T1594 348T1500 246T1412 172T1359 138H1697V0H1112Z" />
<glyph unicode="&#xbe;" horiz-adv-x="1821" d="M383 547Q302 547 239 570T134 633T73 726L234 807Q246 773 266 747T316 707T385 692Q423 692 453 709T500 759T517 837Q517 883 501 913T458 957T395 972Q376 972 354 967T315 952L212 1063L437 1261H106V1400H661V1261L428
1064Q433 1068 444 1070T470 1075T496 1077Q542 1077 589 1052T668 975T700 836Q700 765 676 711T609 621T507 566T383 547ZM568 0L1115 1400H1252L708 0H568ZM1470 0V168H1108V307L1364 840H1645V307H1760V168H1645V0H1470ZM1291 307H1470V735H1485L1291 307Z"
/>
<glyph unicode="&#xbf;" horiz-adv-x="1300" d="M770 590V543Q770 474 750 418T697 316T625 231T546 157Q508 122 476 89T424 22T404 -52Q404 -99 421 -130T469 -181T537 -208T615 -217Q664 -217 710 -203T798 -161T870 -97T917 -17L1107 -125Q1081 -198 1012
-264T843 -371T621 -412Q529 -412 447 -393T302 -333T203 -224T167 -61Q167 8 196 63T272 165T368 254Q416 297 458 340T528 435T555 549V590H770ZM791 749H533V1000H791V749Z" />
<glyph unicode="&#xc0;" horiz-adv-x="1300" d="M1201 0H953L873 336H431L351 0H103L456 1400H848L1201 0ZM639 1218L468 518H836L665 1218H639ZM540 1524L203 1816H460L762 1524H540Z" />
<glyph unicode="&#xc1;" horiz-adv-x="1300" d="M1201 0H953L873 336H431L351 0H103L456 1400H848L1201 0ZM639 1218L468 518H836L665 1218H639ZM739 1524H518L820 1816H1077L739 1524Z" />
<glyph unicode="&#xc2;" horiz-adv-x="1300" d="M1201 0H953L873 336H431L351 0H103L456 1400H848L1201 0ZM639 1218L468 518H836L665 1218H639ZM284 1528L573 1800H732L1020 1528H816L653 1695L489 1528H284Z" />
<glyph unicode="&#xc3;" horiz-adv-x="1300" d="M1201 0H953L873 336H431L351 0H103L456 1400H848L1201 0ZM639 1218L468 518H836L665 1218H639ZM762 1509Q715 1509 684 1528T629 1568Q608 1586 587 1599T540 1613Q491 1613 464 1578T428 1515L330 1598Q336 1621
361 1658T429 1725T529 1755Q576 1755 607 1736T663 1696Q686 1677 707 1663T756 1649Q802 1649 829 1685T866 1747L962 1664Q956 1640 932 1603T866 1538T762 1509Z" />
<glyph unicode="&#xc4;" horiz-adv-x="1300" d="M1201 0H953L873 336H431L351 0H103L456 1400H848L1201 0ZM639 1218L468 518H836L665 1218H639ZM286 1786H536V1536H286V1786ZM768 1786H1018V1536H768V1786Z" />
<glyph unicode="&#xc5;" horiz-adv-x="1300" d="M1201 0H953L873 336H431L351 0H103L456 1400H848L1201 0ZM639 1218L468 518H836L665 1218H639ZM655 1477Q597 1477 550 1504T474 1577T445 1683Q445 1739 473 1785T549 1859T655 1887Q710 1887 756 1860T831 1786T859
1683Q859 1624 831 1578T757 1504T655 1477ZM655 1600Q687 1600 710 1623T734 1685Q734 1717 711 1739T655 1761Q618 1761 595 1739T572 1685Q572 1647 595 1624T655 1600Z" />
<glyph unicode="&#xc6;" horiz-adv-x="1700" d="M837 0V1218H654L688 1400H1547V1218H1079V778H1489V598H1079V182H1547V0H837ZM429 259L463 429H925L898 259H429ZM110 0L620 1400H851L371 0H110Z" />
<glyph unicode="&#xc7;" horiz-adv-x="1300" d="M707 -410Q677 -410 646 -408T584 -400T528 -389T479 -376L534 -257Q567 -268 597 -275T659 -287T726 -292Q771 -292 804 -282T855 -252T874 -206Q874 -176 855 -166T804 -156Q785 -156 763 -162T721 -178T687 -200L564
-168L629 0H775L711 -154L698 -132Q709 -114 733 -99T792 -75T864 -66Q905 -66 941 -78T999 -119T1022 -201Q1022 -269 982 -316T871 -386T707 -410ZM697 -22Q612 -22 527 1T367 77T233 212T142 416T108 696Q108 856 141 975T234 1178T369 1313T530 1388T701 1412Q787
1412 861 1389T996 1322T1103 1218T1178 1082L965 975Q951 1017 929 1061T875 1143T800 1204T700 1227Q636 1227 575 1198T464 1104T385 939T356 696Q356 554 385 453T463 287T572 193T697 163Q754 163 797 186T873 247T927 328T965 410L1178 303Q1149 231 1103
172T996 69T860 2T697 -22Z" />
<glyph unicode="&#xc8;" horiz-adv-x="1300" d="M217 0V1400H1118V1218H459V778H1042V598H459V182H1118V0H217ZM577 1524L240 1816H497L799 1524H577Z" />
<glyph unicode="&#xc9;" horiz-adv-x="1300" d="M217 0V1400H1118V1218H459V778H1042V598H459V182H1118V0H217ZM776 1524H555L857 1816H1114L776 1524Z" />
<glyph unicode="&#xca;" horiz-adv-x="1300" d="M217 0V1400H1118V1218H459V778H1042V598H459V182H1118V0H217ZM320 1528L609 1800H768L1056 1528H852L689 1695L525 1528H320Z" />
<glyph unicode="&#xcb;" horiz-adv-x="1300" d="M217 0V1400H1118V1218H459V778H1042V598H459V182H1118V0H217ZM323 1786H573V1536H323V1786ZM805 1786H1055V1536H805V1786Z" />
<glyph unicode="&#xcc;" horiz-adv-x="1300" d="M243 0V182H528V1218H243V1400H1057V1218H770V182H1057V0H243ZM540 1524L203 1816H460L762 1524H540Z" />
<glyph unicode="&#xcd;" horiz-adv-x="1300" d="M243 0V182H528V1218H243V1400H1057V1218H770V182H1057V0H243ZM739 1524H518L820 1816H1077L739 1524Z" />
<glyph unicode="&#xce;" horiz-adv-x="1300" d="M243 0V182H528V1218H243V1400H1057V1218H770V182H1057V0H243ZM284 1528L573 1800H732L1020 1528H816L653 1695L489 1528H284Z" />
<glyph unicode="&#xcf;" horiz-adv-x="1300" d="M243 0V182H528V1218H243V1400H1057V1218H770V182H1057V0H243ZM286 1786H536V1536H286V1786ZM768 1786H1018V1536H768V1786Z" />
<glyph unicode="&#xd0;" horiz-adv-x="1300" d="M174 0V618H33V782H174V1400H567Q638 1400 710 1389T851 1349T977 1271T1081 1144T1150 957T1175 700Q1175 553 1151 444T1081 257T978 129T851 51T711 12T567 0H174ZM416 182H548Q629 182 698 207T819 292T898
451T927 700Q927 849 899 949T819 1108T699 1192T548 1218H416V782H668V618H416V182Z" />
<glyph unicode="&#xd1;" horiz-adv-x="1300" d="M135 0V1400H493L960 207H917V1400H1159V0H849L367 1189H377V0H135ZM756 1509Q709 1509 678 1528T623 1568Q602 1586 581 1599T534 1613Q485 1613 458 1578T422 1515L324 1598Q330 1621 355 1658T423 1725T523 1755Q570
1755 601 1736T657 1696Q680 1677 701 1663T750 1649Q796 1649 823 1685T860 1747L956 1664Q950 1640 926 1603T860 1538T756 1509Z" />
<glyph unicode="&#xd2;" horiz-adv-x="1300" d="M648 -22Q560 -22 476 3T320 83T192 221T105 424T73 696Q73 849 104 967T191 1169T319 1307T476 1386T648 1412Q735 1412 818 1387T974 1308T1102 1170T1189 967T1220 696Q1220 542 1189 424T1103 222T974 83T818
4T648 -22ZM648 163Q710 163 768 193T873 287T947 452T974 696Q974 837 947 938T874 1103T769 1197T648 1227Q585 1227 526 1197T421 1103T347 938T319 696Q319 554 346 453T420 287T526 193T648 163ZM533 1524L196 1816H453L755 1524H533Z" />
<glyph unicode="&#xd3;" horiz-adv-x="1300" d="M648 -22Q560 -22 476 3T320 83T192 221T105 424T73 696Q73 849 104 967T191 1169T319 1307T476 1386T648 1412Q735 1412 818 1387T974 1308T1102 1170T1189 967T1220 696Q1220 542 1189 424T1103 222T974 83T818
4T648 -22ZM648 163Q710 163 768 193T873 287T947 452T974 696Q974 837 947 938T874 1103T769 1197T648 1227Q585 1227 526 1197T421 1103T347 938T319 696Q319 554 346 453T420 287T526 193T648 163ZM732 1524H511L813 1816H1070L732 1524Z" />
<glyph unicode="&#xd4;" horiz-adv-x="1300" d="M648 -22Q560 -22 476 3T320 83T192 221T105 424T73 696Q73 849 104 967T191 1169T319 1307T476 1386T648 1412Q735 1412 818 1387T974 1308T1102 1170T1189 967T1220 696Q1220 542 1189 424T1103 222T974 83T818
4T648 -22ZM648 163Q710 163 768 193T873 287T947 452T974 696Q974 837 947 938T874 1103T769 1197T648 1227Q585 1227 526 1197T421 1103T347 938T319 696Q319 554 346 453T420 287T526 193T648 163ZM276 1528L565 1800H724L1012 1528H808L645 1695L481 1528H276Z"
/>
<glyph unicode="&#xd5;" horiz-adv-x="1300" d="M648 -22Q560 -22 476 3T320 83T192 221T105 424T73 696Q73 849 104 967T191 1169T319 1307T476 1386T648 1412Q735 1412 818 1387T974 1308T1102 1170T1189 967T1220 696Q1220 542 1189 424T1103 222T974 83T818
4T648 -22ZM648 163Q710 163 768 193T873 287T947 452T974 696Q974 837 947 938T874 1103T769 1197T648 1227Q585 1227 526 1197T421 1103T347 938T319 696Q319 554 346 453T420 287T526 193T648 163ZM754 1509Q707 1509 676 1528T621 1568Q600 1586 579 1599T532
1613Q483 1613 456 1578T420 1515L322 1598Q328 1621 353 1658T421 1725T521 1755Q568 1755 599 1736T655 1696Q678 1677 699 1663T748 1649Q794 1649 821 1685T858 1747L954 1664Q948 1640 924 1603T858 1538T754 1509Z" />
<glyph unicode="&#xd6;" horiz-adv-x="1300" d="M648 -22Q560 -22 476 3T320 83T192 221T105 424T73 696Q73 849 104 967T191 1169T319 1307T476 1386T648 1412Q735 1412 818 1387T974 1308T1102 1170T1189 967T1220 696Q1220 542 1189 424T1103 222T974 83T818
4T648 -22ZM648 163Q710 163 768 193T873 287T947 452T974 696Q974 837 947 938T874 1103T769 1197T648 1227Q585 1227 526 1197T421 1103T347 938T319 696Q319 554 346 453T420 287T526 193T648 163ZM278 1786H528V1536H278V1786ZM760 1786H1010V1536H760V1786Z"
/>
<glyph unicode="&#xd7;" horiz-adv-x="1300" d="M816 259L255 819L394 957L955 396L816 259ZM393 259L255 396L815 957L953 819L393 259Z" />
<glyph unicode="&#xd8;" horiz-adv-x="1300" d="M90 63L1055 1431L1210 1324L245 -43L90 63ZM648 -22Q560 -22 476 3T320 83T192 221T105 424T73 696Q73 849 104 967T191 1169T319 1307T476 1386T648 1412Q735 1412 818 1387T974 1308T1102 1170T1189 967T1220
696Q1220 542 1189 424T1103 222T974 83T818 4T648 -22ZM648 163Q710 163 768 193T873 287T947 452T974 696Q974 837 947 938T874 1103T769 1197T648 1227Q585 1227 526 1197T421 1103T347 938T319 696Q319 554 346 453T420 287T526 193T648 163Z" />
<glyph unicode="&#xd9;" horiz-adv-x="1300" d="M652 -22Q549 -22 458 8T297 104T187 276T147 536V1400H389V547Q389 414 420 331T511 208T652 169Q735 169 793 208T882 330T913 547V1400H1155V536Q1155 383 1116 277T1007 104T847 8T652 -22ZM538 1524L201 1816H458L760
1524H538Z" />
<glyph unicode="&#xda;" horiz-adv-x="1300" d="M652 -22Q549 -22 458 8T297 104T187 276T147 536V1400H389V547Q389 414 420 331T511 208T652 169Q735 169 793 208T882 330T913 547V1400H1155V536Q1155 383 1116 277T1007 104T847 8T652 -22ZM737 1524H516L818
1816H1075L737 1524Z" />
<glyph unicode="&#xdb;" horiz-adv-x="1300" d="M652 -22Q549 -22 458 8T297 104T187 276T147 536V1400H389V547Q389 414 420 331T511 208T652 169Q735 169 793 208T882 330T913 547V1400H1155V536Q1155 383 1116 277T1007 104T847 8T652 -22ZM282 1528L571 1800H730L1018
1528H814L651 1695L487 1528H282Z" />
<glyph unicode="&#xdc;" horiz-adv-x="1300" d="M652 -22Q549 -22 458 8T297 104T187 276T147 536V1400H389V547Q389 414 420 331T511 208T652 169Q735 169 793 208T882 330T913 547V1400H1155V536Q1155 383 1116 277T1007 104T847 8T652 -22ZM284 1786H534V1536H284V1786ZM766
1786H1016V1536H766V1786Z" />
<glyph unicode="&#xdd;" horiz-adv-x="1300" d="M520 0V492L104 1400H355L640 717L925 1400H1176L762 492V0H520ZM726 1524H505L807 1816H1064L726 1524Z" />
<glyph unicode="&#xde;" horiz-adv-x="1300" d="M206 0V1400H448V1176H620Q668 1176 731 1168T860 1134T979 1058T1068 924T1102 714Q1102 588 1068 505T980 372T860 297T732 264T620 256H448V0H206ZM448 438H603Q634 438 668 442T736 462T797 508T841 589T858
714Q858 789 842 839T798 921T737 968T669 989T603 994H448V438Z" />
<glyph unicode="&#xdf;" horiz-adv-x="1300" d="M715 -22Q663 -22 616 -16T533 -1T471 16L519 208Q545 199 586 188T689 176Q740 176 787 187T872 224T931 291T953 393Q953 449 929 489T867 559T790 614Q756 638 726 662T676 715T657 782Q657 821 670 849T706
900T750 942Q774 963 795 984T829 1034T843 1100Q843 1142 828 1176T785 1234T719 1272T636 1285Q588 1285 541 1270T456 1222T394 1136T371 1008V0H129V1024Q129 1145 172 1231T287 1371T450 1452T634 1478Q753 1478 852 1437T1011 1314T1071 1113Q1071 1048 1052
1001T1005 921T949 864Q925 843 909 825T893 788Q893 773 912 758T961 725Q993 706 1031 679T1103 613T1160 519T1183 387Q1183 277 1143 199T1036 72T886 1T715 -22Z" />
<glyph unicode="&#xe0;" horiz-adv-x="1300" d="M536 -22Q452 -22 381 -1T258 63T176 166T147 308Q147 375 171 427T238 516T333 578T446 613T565 624Q634 624 690 611T786 577T843 537V659Q843 707 824 740T771 795T694 825T603 835Q553 835 507 826T420 803T348
773T294 741L189 920Q225 945 290 968T440 1008T617 1024Q682 1024 748 1014T874 981T981 920T1056 825T1084 689V182H1225V0H892L866 126Q849 94 806 60T696 2T536 -22ZM602 159Q667 159 716 178T797 226T843 277V379Q828 402 791 423T707 459T609 474Q554 474
502 459T417 410T384 319Q384 262 411 227T488 176T602 159ZM774 1124L437 1416H694L996 1124H774Z" />
<glyph unicode="&#xe1;" horiz-adv-x="1300" d="M536 -22Q452 -22 381 -1T258 63T176 166T147 308Q147 375 171 427T238 516T333 578T446 613T565 624Q634 624 690 611T786 577T843 537V659Q843 707 824 740T771 795T694 825T603 835Q553 835 507 826T420 803T348
773T294 741L189 920Q225 945 290 968T440 1008T617 1024Q682 1024 748 1014T874 981T981 920T1056 825T1084 689V182H1225V0H892L866 126Q849 94 806 60T696 2T536 -22ZM602 159Q667 159 716 178T797 226T843 277V379Q828 402 791 423T707 459T609 474Q554 474
502 459T417 410T384 319Q384 262 411 227T488 176T602 159ZM717 1124H496L798 1416H1055L717 1124Z" />
<glyph unicode="&#xe2;" horiz-adv-x="1300" d="M536 -22Q452 -22 381 -1T258 63T176 166T147 308Q147 375 171 427T238 516T333 578T446 613T565 624Q634 624 690 611T786 577T843 537V659Q843 707 824 740T771 795T694 825T603 835Q553 835 507 826T420 803T348
773T294 741L189 920Q225 945 290 968T440 1008T617 1024Q682 1024 748 1014T874 981T981 920T1056 825T1084 689V182H1225V0H892L866 126Q849 94 806 60T696 2T536 -22ZM602 159Q667 159 716 178T797 226T843 277V379Q828 402 791 423T707 459T609 474Q554 474
502 459T417 410T384 319Q384 262 411 227T488 176T602 159ZM517 1128L806 1400H965L1253 1128H1049L886 1295L722 1128H517Z" />
<glyph unicode="&#xe3;" horiz-adv-x="1300" d="M536 -22Q452 -22 381 -1T258 63T176 166T147 308Q147 375 171 427T238 516T333 578T446 613T565 624Q634 624 690 611T786 577T843 537V659Q843 707 824 740T771 795T694 825T603 835Q553 835 507 826T420 803T348
773T294 741L189 920Q225 945 290 968T440 1008T617 1024Q682 1024 748 1014T874 981T981 920T1056 825T1084 689V182H1225V0H892L866 126Q849 94 806 60T696 2T536 -22ZM602 159Q667 159 716 178T797 226T843 277V379Q828 402 791 423T707 459T609 474Q554 474
502 459T417 410T384 319Q384 262 411 227T488 176T602 159ZM995 1109Q948 1109 917 1128T862 1168Q841 1186 820 1199T773 1213Q724 1213 697 1178T661 1115L563 1198Q569 1221 594 1258T662 1325T762 1355Q809 1355 840 1336T896 1296Q919 1277 940 1263T989
1249Q1035 1249 1062 1285T1099 1347L1195 1264Q1189 1240 1165 1203T1099 1138T995 1109Z" />
<glyph unicode="&#xe4;" horiz-adv-x="1300" d="M536 -22Q452 -22 381 -1T258 63T176 166T147 308Q147 375 171 427T238 516T333 578T446 613T565 624Q634 624 690 611T786 577T843 537V659Q843 707 824 740T771 795T694 825T603 835Q553 835 507 826T420 803T348
773T294 741L189 920Q225 945 290 968T440 1008T617 1024Q682 1024 748 1014T874 981T981 920T1056 825T1084 689V182H1225V0H892L866 126Q849 94 806 60T696 2T536 -22ZM602 159Q667 159 716 178T797 226T843 277V379Q828 402 791 423T707 459T609 474Q554 474
502 459T417 410T384 319Q384 262 411 227T488 176T602 159ZM264 1386H514V1136H264V1386ZM746 1386H996V1136H746V1386Z" />
<glyph unicode="&#xe5;" horiz-adv-x="1300" d="M536 -22Q452 -22 381 -1T258 63T176 166T147 308Q147 375 171 427T238 516T333 578T446 613T565 624Q634 624 690 611T786 577T843 537V659Q843 707 824 740T771 795T694 825T603 835Q553 835 507 826T420 803T348
773T294 741L189 920Q225 945 290 968T440 1008T617 1024Q682 1024 748 1014T874 981T981 920T1056 825T1084 689V182H1225V0H892L866 126Q849 94 806 60T696 2T536 -22ZM602 159Q667 159 716 178T797 226T843 277V379Q828 402 791 423T707 459T609 474Q554 474
502 459T417 410T384 319Q384 262 411 227T488 176T602 159ZM888 1077Q830 1077 783 1104T707 1177T678 1283Q678 1339 706 1385T782 1459T888 1487Q943 1487 989 1460T1064 1386T1092 1283Q1092 1224 1064 1178T990 1104T888 1077ZM888 1200Q920 1200 943 1223T967
1285Q967 1317 944 1339T888 1361Q851 1361 828 1339T805 1285Q805 1247 828 1224T888 1200Z" />
<glyph unicode="&#xe6;" horiz-adv-x="1700" d="M437 -22Q336 -22 261 2T136 71T61 179T36 320Q36 383 55 434T111 526T198 593T314 634T452 648Q512 648 558 637T637 612T685 584V681Q685 718 671 747T631 795T567 825T481 835Q416 835 356 823T247 792T167 759L80
939Q116 957 181 976T331 1010T509 1024Q583 1024 648 1008T762 959T835 875Q877 926 931 959T1048 1008T1176 1024Q1275 1024 1361 993T1513 901T1614 750T1651 541Q1651 521 1649 496T1644 453H934Q938 363 969 298T1054 196T1180 159Q1247 159 1290 183T1357
239T1393 299L1606 192Q1582 149 1545 111T1455 43T1333 -5T1172 -22Q1101 -22 1034 -3T909 56T810 156Q776 106 723 66T599 2T437 -22ZM480 153Q548 153 593 183T662 260T685 360V429Q673 441 654 453T611 475T560 492T502 499Q426 499 375 478T299 419T273 327Q273
275 295 236T363 175T480 153ZM937 602H1399V615Q1399 663 1384 704T1340 777T1271 826T1180 844Q1119 844 1068 818T982 738T937 602Z" />
<glyph unicode="&#xe7;" horiz-adv-x="1300" d="M702 -22Q630 -22 558 -3T420 55T305 157T225 304T196 502Q196 615 225 701T304 848T420 948T557 1005T702 1024Q784 1024 853 1005T979 951T1076 870T1138 769L925 670Q914 709 887 749T816 816T708 843Q661 843
615 824T531 765T470 659T447 502Q447 411 470 347T531 241T615 179T708 159Q772 159 816 184T887 248T924 323L1137 223Q1115 174 1076 130T980 51T855 -2T702 -22ZM701 -410Q670 -410 639 -408T578 -400T521 -389T473 -376L528 -257Q561 -268 591 -275T653 -287T720
-292Q764 -292 797 -282T849 -252T867 -206Q867 -176 848 -166T798 -156Q779 -156 757 -162T714 -178T681 -200L558 -168L623 0H768L705 -154L691 -132Q703 -114 727 -99T785 -75T857 -66Q898 -66 934 -78T993 -119T1016 -201Q1016 -269 976 -316T865 -386T701
-410Z" />
<glyph unicode="&#xe8;" horiz-adv-x="1300" d="M653 -22Q557 -22 466 10T303 107T187 270T144 502Q144 635 187 733T303 896T467 992T656 1024Q756 1024 847 994T1009 904T1120 753T1161 541Q1161 521 1159 496T1154 453H337V602H909Q909 606 909 608T909 615Q909
683 876 734T786 815T660 844Q611 844 563 825T476 765T414 660T391 504Q391 392 428 315T528 199T666 159Q735 159 783 182T861 237T903 299L1122 192Q1097 147 1055 109T953 41T819 -5T653 -22ZM806 1124L469 1416H726L1028 1124H806Z" />
<glyph unicode="&#xe9;" horiz-adv-x="1300" d="M653 -22Q557 -22 466 10T303 107T187 270T144 502Q144 635 187 733T303 896T467 992T656 1024Q756 1024 847 994T1009 904T1120 753T1161 541Q1161 521 1159 496T1154 453H337V602H909Q909 606 909 608T909 615Q909
683 876 734T786 815T660 844Q611 844 563 825T476 765T414 660T391 504Q391 392 428 315T528 199T666 159Q735 159 783 182T861 237T903 299L1122 192Q1097 147 1055 109T953 41T819 -5T653 -22ZM749 1124H528L830 1416H1087L749 1124Z" />
<glyph unicode="&#xea;" horiz-adv-x="1300" d="M653 -22Q557 -22 466 10T303 107T187 270T144 502Q144 635 187 733T303 896T467 992T656 1024Q756 1024 847 994T1009 904T1120 753T1161 541Q1161 521 1159 496T1154 453H337V602H909Q909 606 909 608T909 615Q909
683 876 734T786 815T660 844Q611 844 563 825T476 765T414 660T391 504Q391 392 428 315T528 199T666 159Q735 159 783 182T861 237T903 299L1122 192Q1097 147 1055 109T953 41T819 -5T653 -22ZM293 1128L582 1400H741L1029 1128H825L662 1295L498 1128H293Z"
/>
<glyph unicode="&#xeb;" horiz-adv-x="1300" d="M653 -22Q557 -22 466 10T303 107T187 270T144 502Q144 635 187 733T303 896T467 992T656 1024Q756 1024 847 994T1009 904T1120 753T1161 541Q1161 521 1159 496T1154 453H337V602H909Q909 606 909 608T909 615Q909
683 876 734T786 815T660 844Q611 844 563 825T476 765T414 660T391 504Q391 392 428 315T528 199T666 159Q735 159 783 182T861 237T903 299L1122 192Q1097 147 1055 109T953 41T819 -5T653 -22ZM296 1386H546V1136H296V1386ZM778 1386H1028V1136H778V1386Z" />
<glyph unicode="&#xec;" horiz-adv-x="1000" d="M125 0V182H434V818H125V1000H676V182H951V0H125ZM424 1124L87 1416H344L646 1124H424Z" />
<glyph unicode="&#xed;" horiz-adv-x="1000" d="M125 0V182H434V818H125V1000H676V182H951V0H125ZM623 1124H402L704 1416H961L623 1124Z" />
<glyph unicode="&#xee;" horiz-adv-x="1000" d="M125 0V182H434V818H125V1000H676V182H951V0H125ZM423 1128L712 1400H871L1159 1128H955L792 1295L628 1128H423Z" />
<glyph unicode="&#xef;" horiz-adv-x="1000" d="M125 0V182H434V818H125V1000H676V182H951V0H125ZM426 1386H676V1136H426V1386ZM908 1386H1158V1136H908V1386Z" />
<glyph unicode="&#xf0;" horiz-adv-x="1300" d="M634 -21Q533 -21 442 12T282 111T172 275T132 503Q132 632 167 730T267 893T418 992T608 1025Q690 1025 763 997T896 919T992 806T1039 670L897 561Q894 626 877 676T828 762T749 816T642 835Q583 835 535 812T453
745T401 640T382 503Q382 429 401 368T454 263T536 194T642 170Q702 170 749 194T828 272T876 411T893 617Q893 741 865 856T786 1072T663 1253T504 1385T317 1458L403 1608Q504 1586 609 1532T812 1395T986 1201T1108 954T1153 657Q1153 464 1111 334T996 126T830
13T634 -21ZM501 1197L385 1309L784 1602L879 1486L501 1197Z" />
<glyph unicode="&#xf1;" horiz-adv-x="1300" d="M205 0V1000H420L448 793V0H205ZM860 0V561Q860 658 841 717T780 804T674 831Q628 831 588 813T515 764T464 691T441 604L382 628Q382 700 405 770T476 897T594 989T757 1023Q836 1023 899 999T1008 923T1078 792T1103
599V0H860ZM1023 1109Q976 1109 945 1128T890 1168Q869 1186 848 1199T801 1213Q752 1213 725 1178T689 1115L591 1198Q597 1221 622 1258T690 1325T790 1355Q837 1355 868 1336T924 1296Q947 1277 968 1263T1017 1249Q1063 1249 1090 1285T1127 1347L1223 1264Q1217
1240 1193 1203T1127 1138T1023 1109Z" />
<glyph unicode="&#xf2;" horiz-adv-x="1300" d="M655 -22Q587 -22 516 -5T379 51T260 150T177 299T146 502Q146 617 177 704T260 852T378 951T516 1006T655 1024Q723 1024 794 1007T931 951T1049 852T1132 704T1163 502Q1163 386 1133 299T1050 151T931 51T794
-4T655 -22ZM655 159Q701 159 747 177T832 235T894 341T917 502Q917 596 894 661T833 767T748 825T655 843Q609 843 563 825T478 767T416 662T392 502Q392 407 415 341T477 236T562 178T655 159ZM799 1124L462 1416H719L1021 1124H799Z" />
<glyph unicode="&#xf3;" horiz-adv-x="1300" d="M655 -22Q587 -22 516 -5T379 51T260 150T177 299T146 502Q146 617 177 704T260 852T378 951T516 1006T655 1024Q723 1024 794 1007T931 951T1049 852T1132 704T1163 502Q1163 386 1133 299T1050 151T931 51T794
-4T655 -22ZM655 159Q701 159 747 177T832 235T894 341T917 502Q917 596 894 661T833 767T748 825T655 843Q609 843 563 825T478 767T416 662T392 502Q392 407 415 341T477 236T562 178T655 159ZM742 1124H521L823 1416H1080L742 1124Z" />
<glyph unicode="&#xf4;" horiz-adv-x="1300" d="M655 -22Q587 -22 516 -5T379 51T260 150T177 299T146 502Q146 617 177 704T260 852T378 951T516 1006T655 1024Q723 1024 794 1007T931 951T1049 852T1132 704T1163 502Q1163 386 1133 299T1050 151T931 51T794
-4T655 -22ZM655 159Q701 159 747 177T832 235T894 341T917 502Q917 596 894 661T833 767T748 825T655 843Q609 843 563 825T478 767T416 662T392 502Q392 407 415 341T477 236T562 178T655 159ZM543 1128L832 1400H991L1279 1128H1075L912 1295L748 1128H543Z"
/>
<glyph unicode="&#xf5;" horiz-adv-x="1300" d="M655 -22Q587 -22 516 -5T379 51T260 150T177 299T146 502Q146 617 177 704T260 852T378 951T516 1006T655 1024Q723 1024 794 1007T931 951T1049 852T1132 704T1163 502Q1163 386 1133 299T1050 151T931 51T794
-4T655 -22ZM655 159Q701 159 747 177T832 235T894 341T917 502Q917 596 894 661T833 767T748 825T655 843Q609 843 563 825T478 767T416 662T392 502Q392 407 415 341T477 236T562 178T655 159ZM1021 1109Q974 1109 943 1128T888 1168Q867 1186 846 1199T799 1213Q750
1213 723 1178T687 1115L589 1198Q595 1221 620 1258T688 1325T788 1355Q835 1355 866 1336T922 1296Q945 1277 966 1263T1015 1249Q1061 1249 1088 1285T1125 1347L1221 1264Q1215 1240 1191 1203T1125 1138T1021 1109Z" />
<glyph unicode="&#xf6;" horiz-adv-x="1300" d="M655 -22Q587 -22 516 -5T379 51T260 150T177 299T146 502Q146 617 177 704T260 852T378 951T516 1006T655 1024Q723 1024 794 1007T931 951T1049 852T1132 704T1163 502Q1163 386 1133 299T1050 151T931 51T794
-4T655 -22ZM655 159Q701 159 747 177T832 235T894 341T917 502Q917 596 894 661T833 767T748 825T655 843Q609 843 563 825T478 767T416 662T392 502Q392 407 415 341T477 236T562 178T655 159ZM289 1386H539V1136H289V1386ZM771 1386H1021V1136H771V1386Z" />
<glyph unicode="&#xf7;" horiz-adv-x="1300" d="M208 510V706H1002V510H208ZM596 142Q541 142 503 182T464 278Q464 332 502 371T596 410Q652 410 690 371T728 278Q728 222 690 182T596 142ZM596 812Q541 812 503 851T464 946Q464 1001 502 1040T596 1080Q652
1080 690 1041T728 946Q728 891 690 852T596 812Z" />
<glyph unicode="&#xf8;" horiz-adv-x="1300" d="M210 36L1006 1038L1101 969L305 -33L210 36ZM655 -22Q587 -22 516 -5T379 51T260 150T177 299T146 502Q146 617 177 704T260 852T378 951T516 1006T655 1024Q723 1024 794 1007T931 951T1049 852T1132 704T1163
502Q1163 386 1133 299T1050 151T931 51T794 -4T655 -22ZM655 159Q701 159 747 177T832 235T894 341T917 502Q917 596 894 661T833 767T748 825T655 843Q609 843 563 825T478 767T416 662T392 502Q392 407 415 341T477 236T562 178T655 159Z" />
<glyph unicode="&#xf9;" horiz-adv-x="1300" d="M522 -23Q444 -23 381 1T272 77T202 208T177 401V1000H419V439Q419 342 438 283T499 196T605 169Q651 169 691 187T764 236T815 309T838 396L897 372Q897 300 874 230T803 103T685 11T522 -23ZM882 0L833 225V1000H1075V129L1033
182H1191V0H882ZM777 1124L440 1416H697L999 1124H777Z" />
<glyph unicode="&#xfa;" horiz-adv-x="1300" d="M522 -23Q444 -23 381 1T272 77T202 208T177 401V1000H419V439Q419 342 438 283T499 196T605 169Q651 169 691 187T764 236T815 309T838 396L897 372Q897 300 874 230T803 103T685 11T522 -23ZM882 0L833 225V1000H1075V129L1033
182H1191V0H882ZM720 1124H499L801 1416H1058L720 1124Z" />
<glyph unicode="&#xfb;" horiz-adv-x="1300" d="M522 -23Q444 -23 381 1T272 77T202 208T177 401V1000H419V439Q419 342 438 283T499 196T605 169Q651 169 691 187T764 236T815 309T838 396L897 372Q897 300 874 230T803 103T685 11T522 -23ZM882 0L833 225V1000H1075V129L1033
182H1191V0H882ZM520 1128L809 1400H968L1256 1128H1052L889 1295L725 1128H520Z" />
<glyph unicode="&#xfc;" horiz-adv-x="1300" d="M522 -23Q444 -23 381 1T272 77T202 208T177 401V1000H419V439Q419 342 438 283T499 196T605 169Q651 169 691 187T764 236T815 309T838 396L897 372Q897 300 874 230T803 103T685 11T522 -23ZM882 0L833 225V1000H1075V129L1033
182H1191V0H882ZM266 1386H516V1136H266V1386ZM748 1386H998V1136H748V1386Z" />
<glyph unicode="&#xfd;" horiz-adv-x="1300" d="M425 -400L603 52L679 -5H503L142 1000H392L678 132H636L923 1000H1168L666 -400H425ZM732 1124H511L813 1416H1070L732 1124Z" />
<glyph unicode="&#xfe;" horiz-adv-x="1300" d="M183 -400V1500H425V-400H183ZM720 -22Q625 -22 552 19T429 124T354 260T329 397L422 428Q426 379 444 332T492 249T563 191T654 169Q724 169 781 206T873 317T907 502Q907 613 874 686T786 795T661 831Q611 831
571 811T499 758T448 682T418 596L331 627Q331 690 358 758T435 887T560 984T730 1022Q838 1022 934 967T1089 797T1149 502Q1149 367 1113 268T1016 105T878 10T720 -22Z" />
<glyph unicode="&#xff;" horiz-adv-x="1300" d="M425 -400L603 52L679 -5H503L142 1000H392L678 132H636L923 1000H1168L666 -400H425ZM278 1386H528V1136H278V1386ZM760 1386H1010V1136H760V1386Z" />
<glyph unicode="&#x2013;" horiz-adv-x="1300" d="M200 510V706H980V510H200Z" />
<glyph unicode="&#x2014;" horiz-adv-x="1300" d="M42 510V706H1154V510H42Z" />
<glyph unicode="&#x2018;" horiz-adv-x="1000" d="M543 1483L642 1357Q611 1344 585 1325T542 1274T526 1192L359 1197Q359 1280 389 1337T462 1431T543 1483ZM626 1197V946H359V1197H626Z" />
<glyph unicode="&#x2019;" horiz-adv-x="1000" d="M445 863L346 989Q377 1003 403 1022T445 1072T461 1154L629 1149Q629 1065 599 1008T526 915T445 863ZM362 1149V1400H629V1149H362Z" />
<glyph unicode="&#x201a;" horiz-adv-x="1000" d="M430 -286L331 -161Q363 -146 389 -127T431 -77T447 5L614 0Q614 -84 584 -141T511 -234T430 -286ZM347 0V251H614V0H347Z" />
<glyph unicode="&#x201c;" horiz-adv-x="1300" d="M525 1471L624 1345Q593 1332 567 1313T524 1262T508 1180L341 1185Q341 1268 371 1325T444 1419T525 1471ZM608 1185V934H341V1185H608ZM920 1471L1019 1345Q989 1332 962 1313T920 1262T904 1180L736 1185Q736
1268 766 1325T839 1419T920 1471ZM1003 1185V934H736V1185H1003Z" />
<glyph unicode="&#x201d;" horiz-adv-x="1300" d="M787 863L688 989Q719 1003 745 1022T787 1072T803 1154L970 1149Q970 1065 940 1008T867 915T787 863ZM704 1149V1400H970V1149H704ZM391 863L292 989Q323 1003 349 1022T392 1072T408 1154L575 1149Q575 1065
545 1008T472 915T391 863ZM308 1149V1400H575V1149H308Z" />
<glyph unicode="&#x201e;" horiz-adv-x="1300" d="M619 -286L520 -161Q552 -146 578 -127T620 -77T636 5L803 0Q803 -84 773 -141T700 -234T619 -286ZM536 0V251H803V0H536ZM776 -286L677 -161Q709 -146 735 -127T777 -77T793 5L960 0Q960 -84 930 -141T857 -234T776
-286ZM693 0V251H960V0H693Z" />
<glyph unicode="&#x2022;" horiz-adv-x="1300" d="M592 401Q517 401 456 437T359 534T323 670Q323 746 359 807T456 905T592 941Q667 941 728 905T825 808T861 670Q861 595 825 534T728 437T592 401Z" />
<glyph unicode="&#x2039;" horiz-adv-x="1300" d="M763 168L319 518L401 649L862 285L763 168ZM319 518V656H389V518H319ZM401 527L319 656L763 1006L862 889L401 527Z" />
<glyph unicode="&#x203a;" horiz-adv-x="1300" d="M476 168L377 285L837 649L920 518L476 168ZM920 518H850V656H920V518ZM837 527L377 889L476 1006L920 656L837 527Z" />
</font>
</defs>
</svg>
