<?xml version="1.0" standalone="no"?>
<!DOCTYPE svg PUBLIC "-//W3C//DTD SVG 1.1//EN" "http://www.w3.org/Graphics/SVG/1.1/DTD/svg11.dtd">
<svg xmlns="http://www.w3.org/2000/svg">
<defs >
<font id="Trispace" horiz-adv-x="1241" ><font-face
    font-family="Trispace Thin ExtraBold"
    units-per-em="2000"
    panose-1="0 0 0 0 0 0 0 0 0 0"
    ascent="1830"
    descent="-430"
    alphabetic="0" />
<glyph unicode=" " horiz-adv-x="1000" />
<glyph unicode="!" horiz-adv-x="1000" d="M368 472L310 1400H724L666 472H368ZM325 322H702V0H325V322Z" />
<glyph unicode="&quot;" horiz-adv-x="1300" d="M554 864L480 1400H852L780 864H554ZM765 864L691 1400H1063L991 864H765Z" />
<glyph unicode="#" horiz-adv-x="1800" d="M982 0L1144 1400H1474L1312 0H982ZM96 324L128 590H1592L1558 324H96ZM302 0L464 1400H794L632 0H302ZM162 814L194 1080H1658L1624 814H162Z" />
<glyph unicode="$" horiz-adv-x="1300" d="M539 0V362H811V0H539ZM539 1090V1400H811V1090H539ZM682 184Q558 184 459 204T286 264T160 368L448 552Q468 525 493 507T550 476T617 459T694 454Q727 454 756 457T809 467T845 483T858 505Q858 523 829 537T739 565T577
593Q502 604 432 625T307 684T220 777T188 914Q188 981 216 1032T293 1121T408 1183T546 1218T694 1230Q818 1230 913 1204T1074 1137T1174 1054L896 876Q883 895 861 911T808 939T743 957T670 964Q640 964 613 961T565 950T532 934T520 911Q520 894 546 883T623
862T744 842Q798 834 860 822T983 788T1093 734T1173 650T1203 530Q1203 458 1175 402T1096 305T979 237T837 197T682 184Z" />
<glyph unicode="%" horiz-adv-x="1300" d="M94 0L916 1400H1158L336 0H94ZM950 4Q876 4 814 31T714 117T676 274Q676 370 713 429T813 515T950 542Q1023 542 1085 515T1186 429T1224 274Q1224 177 1186 118T1086 31T950 4ZM950 174Q968 174 984 183T1010 214T1020
274Q1020 311 1010 332T984 363T950 372Q932 372 916 363T889 333T878 274Q878 236 888 214T915 183T950 174ZM304 844Q231 844 169 871T68 957T30 1114Q30 1210 68 1269T168 1355T304 1382Q378 1382 440 1355T540 1269T578 1114Q578 1017 541 958T441 871T304
844ZM304 1014Q322 1014 338 1023T365 1054T376 1114Q376 1151 366 1172T339 1203T304 1212Q286 1212 270 1203T244 1173T234 1114Q234 1076 244 1054T270 1023T304 1014Z" />
<glyph unicode="&amp;" horiz-adv-x="1700" d="M732 -16Q573 -16 445 27T242 159T166 382Q166 479 205 549T314 673T475 772T672 862Q767 903 814 935T876 999T892 1068Q892 1096 883 1114T857 1144T822 1159T782 1164Q762 1164 743 1159T707 1142T682 1111T672
1065Q672 1036 689 1001T732 930T781 867T818 824L1566 0H1192L595 637Q564 670 527 714T457 814T402 932T380 1066Q380 1153 414 1218T505 1326T635 1390T784 1412Q864 1412 937 1392T1068 1329T1159 1221T1193 1065Q1193 967 1150 890T1023 751T814 636Q741 605
688 577T599 522T547 464T530 398Q530 364 543 337T583 290T653 260T752 250Q814 250 879 263T1005 304T1112 374T1188 472T1216 600H1540Q1540 497 1494 405T1368 236T1184 103T964 15T732 -16Z" />
<glyph unicode="&apos;" horiz-adv-x="1000" d="M384 864L310 1400H682L610 864H384Z" />
<glyph unicode="(" horiz-adv-x="1300" d="M822 -478Q799 -461 749 -412T639 -279T524 -73T432 213T396 588Q396 797 432 961T523 1247T639 1454T749 1586T822 1652L1102 1468Q1082 1453 1043 1411T956 1297T867 1124T798 889T770 588Q770 420 797 287T867 52T956
-121T1042 -234T1102 -294L822 -478Z" />
<glyph unicode=")" horiz-adv-x="1300" d="M478 -478L198 -294Q218 -277 257 -235T343 -121T432 51T502 286T530 588Q530 755 503 888T433 1123T345 1296T258 1410T198 1468L478 1652Q501 1635 551 1587T661 1454T776 1248T868 961T904 588Q904 378 868 214T777
-73T661 -279T551 -412T478 -478Z" />
<glyph unicode="*" horiz-adv-x="1300" d="M688 990L556 1210L708 1332L876 1122L688 990ZM508 990L320 1122L490 1332L640 1210L508 990ZM556 1210L260 1280L336 1504L598 1416L556 1210ZM598 1206Q550 1206 516 1235T482 1306Q482 1345 516 1379T598 1414Q645
1414 678 1380T712 1306Q712 1264 679 1235T598 1206ZM490 1332L474 1600H724L708 1332H490ZM640 1210L598 1416L862 1504L938 1280L640 1210Z" />
<glyph unicode="+" horiz-adv-x="1300" d="M458 188V1026H754V188H458ZM186 460V756H1024V460H186Z" />
<glyph unicode="," horiz-adv-x="1000" d="M420 -363L273 -185Q315 -164 345 -142T392 -85T409 5L654 0Q654 -106 616 -178T523 -295T420 -363ZM277 0V322H654V0H277Z" />
<glyph unicode="-" horiz-adv-x="1300" d="M321 460V756H981V460H321Z" />
<glyph unicode="." horiz-adv-x="1000" d="M323 322H700V0H323V322Z" />
<glyph unicode="/" horiz-adv-x="944" d="M52 -284L550 1600H892L394 -284H52Z" />
<glyph unicode="0" horiz-adv-x="1300" d="M638 -22Q529 -22 430 13T254 130T133 350T88 696Q88 902 132 1040T254 1260T430 1377T638 1412Q748 1412 847 1377T1022 1261T1142 1041T1186 696Q1186 489 1143 351T1023 130T847 13T638 -22ZM638 240Q671 240 700
258T751 326T785 464T798 696Q798 836 786 925T751 1063T700 1131T638 1150Q605 1150 576 1131T524 1063T489 925T476 696Q476 554 489 465T524 326T575 259T638 240Z" />
<glyph unicode="1" horiz-adv-x="1300" d="M164 0V270H444V1072L172 982V1291L494 1400H818V270H1098V0H164Z" />
<glyph unicode="2" horiz-adv-x="1300" d="M98 0V264Q128 286 178 323T289 409T415 514T540 630T649 749T725 863T754 966Q754 1009 744 1040T715 1092T670 1122T610 1132Q552 1132 510 1095T442 1006T404 906L84 1042Q110 1156 186 1239T373 1367T610 1412Q723
1412 819 1390T986 1316T1098 1180T1138 970Q1138 897 1104 821T1013 670T891 529T762 408T651 317T582 268H1116V0H98Z" />
<glyph unicode="3" horiz-adv-x="1300" d="M638 -22Q498 -22 389 17T206 126T100 288L414 444Q435 388 465 347T539 284T642 262Q699 262 741 286T805 355T828 464Q828 512 814 549T775 612T717 651T644 664Q623 664 603 660T565 649T530 632L332 850L676 1130H152V1400H1116V1130L750
846Q761 852 793 857T853 863Q910 863 968 841T1077 771T1157 648T1188 466Q1188 347 1147 256T1030 103T855 10T638 -22Z" />
<glyph unicode="4" horiz-adv-x="1300" d="M706 0V264H96V534L484 1400H1076V534H1256V264H1076V0H706ZM468 534H706V1164H727L468 534Z" />
<glyph unicode="5" horiz-adv-x="1300" d="M630 -22Q496 -22 390 18T210 127T102 280L412 434Q420 406 445 366T516 294T629 262Q695 262 737 285T798 354T818 464Q818 524 795 567T730 634T631 658Q574 658 532 639T462 592T419 540L270 621Q287 692 328 751T433
853T575 919T746 942Q868 942 965 891T1119 736T1176 472Q1176 336 1129 242T1004 89T828 5T630 -22ZM419 540L118 648L228 1400H1070V1130H504L419 540Z" />
<glyph unicode="6" horiz-adv-x="1300" d="M619 -22Q506 -22 407 16T233 136T116 346T74 656Q74 851 125 994T263 1229T462 1367T694 1412Q815 1412 897 1382T1029 1310T1100 1232L872 1036Q861 1055 841 1079T786 1120T696 1138Q634 1138 586 1108T504 1015T453
853T436 616Q436 500 451 429T492 321T552 271T623 258Q672 258 714 284T782 359T808 477Q808 549 784 592T719 654T625 674Q583 674 551 662T495 626T457 572T438 504L240 554Q255 638 298 710T405 836T550 920T722 950Q836 950 937 900T1102 747T1166 490Q1166
378 1126 285T1011 122T838 16T619 -22Z" />
<glyph unicode="7" horiz-adv-x="1300" d="M444 0Q444 133 463 269T514 537T586 782T668 986T748 1130H206V1400H1136V1130Q1085 1056 1040 960T958 753T893 518T851 264T836 0H444Z" />
<glyph unicode="8" horiz-adv-x="1300" d="M646 -22Q479 -22 355 30T163 178T94 404Q94 525 146 607T281 740T461 812T646 834Q735 834 830 812T1008 740T1142 608T1194 404Q1194 274 1126 179T935 31T646 -22ZM646 258Q687 258 728 274T796 328T824 432Q824 502
796 540T727 593T646 608Q605 608 563 593T493 540T464 432Q464 366 492 328T562 274T646 258ZM646 640Q566 640 480 666T320 743T200 865T154 1024Q154 1116 189 1188T289 1310T444 1387T646 1414Q756 1414 846 1388T1001 1311T1101 1188T1136 1024Q1136 936 1090
865T971 744T812 667T646 640ZM646 866Q703 866 745 900T788 1002Q788 1037 776 1062T744 1103T698 1126T646 1134Q619 1134 594 1127T547 1103T514 1062T502 1002Q502 935 543 901T646 866Z" />
<glyph unicode="9" horiz-adv-x="1300" d="M560 -22Q439 -22 357 8T225 80T154 158L382 354Q393 335 413 311T468 270T558 252Q620 252 668 282T750 375T801 537T818 774Q818 887 803 957T762 1065T702 1118T631 1132Q582 1132 540 1106T472 1031T446 913Q446
842 470 799T535 736T629 716Q670 716 702 730T759 769T800 826T826 896L1014 836Q999 752 956 680T849 554T704 470T532 440Q418 440 317 490T152 643T88 900Q88 1012 128 1105T243 1268T417 1374T635 1412Q748 1412 847 1374T1021 1254T1138 1044T1180 734Q1180
539 1129 396T991 161T792 23T560 -22Z" />
<glyph unicode=":" horiz-adv-x="1000" d="M283 1000H660V678H283V1000ZM539 322H916V0H539V322Z" />
<glyph unicode=";" horiz-adv-x="1000" d="M333 999H710V677H333V999ZM469 -363L322 -185Q364 -164 394 -142T441 -85T458 5L703 0Q703 -106 665 -178T572 -295T469 -363ZM326 0V322H703V0H326Z" />
<glyph unicode="&lt;" horiz-adv-x="1300" d="M976 1064L1104 840L370 436V598L1104 194L976 -30L226 408V626L976 1064Z" />
<glyph unicode="=" horiz-adv-x="1300" d="M178 644V940H1016V644H178ZM178 276V572H1016V276H178Z" />
<glyph unicode="&gt;" horiz-adv-x="1300" d="M310 -30L182 194L916 598V436L182 840L310 1064L1060 626V408L310 -30Z" />
<glyph unicode="?" horiz-adv-x="1300" d="M406 462V494Q406 559 427 612T482 708T557 788T637 856Q673 885 703 912T752 967T770 1024Q770 1048 762 1065T736 1094T693 1111T632 1117Q592 1117 552 1103T475 1063T410 1002T366 926L84 1088Q111 1168 185 1242T370
1364T622 1412Q730 1412 823 1391T985 1325T1093 1210T1132 1040Q1132 963 1098 904T1012 796T905 705Q860 670 821 636T758 564T734 484V462H406ZM383 322H760V0H383V322Z" />
<glyph unicode="@" horiz-adv-x="1700" d="M709 -18Q646 -18 558 0T378 61T205 180T76 368T26 640Q26 804 74 930T209 1148T411 1298T660 1384T939 1412Q1085 1412 1216 1379T1448 1271T1608 1075T1667 777Q1667 663 1632 574T1534 423T1387 329T1203 296Q1140
296 1094 308T1019 347T981 414Q972 385 940 366T862 336T769 326Q720 326 666 343T563 398T484 501T453 661Q453 762 490 838T593 967T745 1046T929 1073Q982 1073 1031 1064T1120 1042T1183 1014Q1175 942 1167 865T1151 718T1140 598T1136 532Q1136 505 1144
489T1168 467T1207 460Q1269 460 1304 486T1356 558T1376 662T1380 782Q1380 887 1347 960T1251 1080T1106 1147T921 1168Q830 1168 742 1150T577 1093T441 995T349 853T316 664Q316 565 347 486T438 349T578 261T760 230Q832 230 877 243T935 264L1073 42Q1060
35 1016 21T896 -6T709 -18ZM828 556Q844 556 861 563T893 585T913 626Q914 632 916 653T921 704T927 767T933 830Q926 832 910 835T871 838Q837 838 812 826T770 791T745 740T736 678Q736 639 745 615T769 578T799 561T828 556Z" />
<glyph unicode="A" horiz-adv-x="1300" d="M1246 0H869L819 282H485L435 0H58L362 1400H942L1246 0ZM642 1130L537 552H767L662 1130H642Z" />
<glyph unicode="B" horiz-adv-x="1300" d="M144 0V1400H674Q724 1400 789 1394T922 1370T1047 1314T1139 1214T1174 1058Q1174 952 1136 883T1044 778T938 737Q984 733 1035 712T1132 651T1205 549T1234 400Q1234 266 1177 177T1022 44T806 0H144ZM518 270H654Q710
270 756 283T830 331T858 428Q858 499 830 533T756 577T652 588H518V270ZM518 856H622Q682 856 724 868T789 912T812 998Q812 1036 800 1061T764 1101T705 1123T622 1130H518V856Z" />
<glyph unicode="C" horiz-adv-x="1300" d="M689 -22Q604 -22 516 -2T348 67T205 198T106 403T69 696Q69 866 105 988T205 1193T348 1323T516 1391T689 1412Q783 1412 865 1388T1015 1317T1136 1200T1221 1038L897 876Q887 915 871 960T831 1045T772 1112T689 1138Q642
1138 599 1114T522 1038T469 901T449 696Q449 575 468 490T521 353T598 276T689 252Q737 252 772 278T831 344T871 430T897 514L1221 352Q1188 261 1136 191T1016 74T865 2T689 -22Z" />
<glyph unicode="D" horiz-adv-x="1300" d="M105 0V1400H579Q653 1400 729 1390T877 1354T1011 1279T1120 1153T1194 965T1221 700Q1221 548 1195 436T1121 247T1011 121T877 46T729 10T579 0H105ZM479 270H549Q623 270 677 293T767 368T820 501T837 700Q837 817
820 899T768 1032T678 1106T549 1130H479V270Z" />
<glyph unicode="E" horiz-adv-x="1300" d="M172 0V1400H1150V1130H546V822H1082V554H546V270H1150V0H172Z" />
<glyph unicode="F" horiz-adv-x="1300" d="M234 0V1400H1136V1130H608V719H1038V449H608V0H234Z" />
<glyph unicode="G" horiz-adv-x="1300" d="M672 -22Q583 -22 495 1T329 76T190 211T95 415T60 696Q60 856 94 975T189 1178T326 1313T491 1388T668 1412Q769 1412 857 1388T1014 1316T1128 1201T1190 1044L848 916Q842 959 828 998T790 1069T734 1119T660 1138Q624
1138 591 1123T528 1076T478 992T444 867T432 696Q432 575 451 490T503 353T580 276T676 252Q725 252 758 268T812 313T842 382T852 470H648V746H1204V578Q1204 456 1177 360T1101 192T986 73T840 2T672 -22Z" />
<glyph unicode="H" horiz-adv-x="1300" d="M93 0V1400H467V862H835V1400H1209V0H835V594H467V0H93Z" />
<glyph unicode="I" horiz-adv-x="1300" d="M186 0V270H462V1130H186V1400H1114V1130H836V270H1114V0H186Z" />
<glyph unicode="J" horiz-adv-x="1300" d="M616 -22Q504 -22 405 10T231 111T113 294T70 568H446Q446 466 467 398T527 296T616 262Q667 262 705 296T765 398T786 568V1130H288V1400H1160V532Q1160 384 1118 279T1002 108T829 10T616 -22Z" />
<glyph unicode="K" horiz-adv-x="1300" d="M106 0V1400H480V852H536L858 1400H1262L790 656V782L1276 0H869L538 584H480V0H106Z" />
<glyph unicode="L" horiz-adv-x="1000" d="M106 0V1400H482V270H944V0H106Z" />
<glyph unicode="M" horiz-adv-x="1700" d="M788 204L868 671L1052 1400H1250L1256 1094L1002 204H788ZM66 0L164 1400H508L448 0H66ZM698 204L442 1094L448 1400H646L838 671L908 204H698ZM1250 0L1190 1400H1534L1632 0H1250Z" />
<glyph unicode="N" horiz-adv-x="1300" d="M78 0V1400H632L922 304H850V1400H1224V0H754L437 1092H452V0H78Z" />
<glyph unicode="O" horiz-adv-x="1300" d="M646 -22Q554 -22 466 3T300 81T164 218T72 421T38 696Q38 851 71 969T164 1172T300 1309T465 1387T646 1412Q737 1412 825 1387T990 1309T1126 1172T1218 970T1252 696Q1252 540 1219 422T1127 219T991 81T825 3T646
-22ZM646 252Q692 252 733 276T806 354T856 491T874 696Q874 815 856 899T806 1036T733 1113T646 1138Q600 1138 558 1114T485 1037T435 900T416 696Q416 576 434 492T484 354T558 277T646 252Z" />
<glyph unicode="P" horiz-adv-x="1300" d="M144 0V1400H664Q723 1400 794 1388T936 1343T1066 1255T1160 1113T1196 903Q1196 780 1161 693T1066 550T937 461T795 415T664 402H520V0H144ZM520 672H630Q671 672 705 686T764 728T802 800T816 902Q816 961 803 1003T764
1074T705 1116T630 1130H520V672Z" />
<glyph unicode="Q" horiz-adv-x="1300" d="M500 -360V0H804V-126L774 -96H1154V-360H500ZM646 -22Q554 -22 466 3T300 81T164 218T72 421T38 696Q38 851 71 969T164 1172T300 1309T465 1387T646 1412Q737 1412 825 1387T990 1309T1126 1172T1218 970T1252 696Q1252
540 1219 422T1127 219T991 81T825 3T646 -22ZM646 252Q692 252 733 276T806 354T856 491T874 696Q874 815 856 899T806 1036T733 1113T646 1138Q600 1138 558 1114T485 1037T435 900T416 696Q416 576 434 492T484 354T558 277T646 252Z" />
<glyph unicode="R" horiz-adv-x="1300" d="M126 0V1400H712Q771 1400 839 1389T972 1352T1090 1278T1176 1157T1208 980Q1208 864 1172 786T1078 661T950 589T813 556T692 548H500V0H126ZM836 0L603 644L969 682L1232 0H836ZM500 806H630Q694 806 740 822T811
873T836 969Q836 1033 811 1067T740 1116T630 1130H500V806Z" />
<glyph unicode="S" horiz-adv-x="1300" d="M640 -22Q497 -22 377 22T174 145T66 330L422 476Q435 425 467 375T549 292T668 258Q721 258 756 270T810 309T828 377Q828 406 808 432T750 481T662 525T551 566Q459 597 378 634T235 722T138 844T103 1016Q103 1099
134 1163T221 1275T348 1352T498 1397T658 1412Q794 1412 907 1371T1096 1262T1196 1108L846 958Q832 1008 804 1047T736 1109T643 1132Q610 1132 583 1126T536 1107T504 1074T493 1027Q493 993 517 965T590 911T710 862Q773 841 843 815T979 752T1100 668T1186
554T1218 404Q1218 307 1184 235T1092 114T960 35T803 -8T640 -22Z" />
<glyph unicode="T" horiz-adv-x="1300" d="M462 0V1130H106V1400H1194V1130H836V0H462Z" />
<glyph unicode="U" horiz-adv-x="1300" d="M652 -22Q543 -22 445 5T271 93T150 258T106 512V1400H480V528Q480 427 499 369T557 287T652 262Q708 262 746 286T803 369T822 528V1400H1196V512Q1196 361 1153 258T1034 94T860 5T652 -22Z" />
<glyph unicode="V" horiz-adv-x="1300" d="M346 0L34 1400H412L638 270H652L876 1400H1256L942 0H346Z" />
<glyph unicode="W" horiz-adv-x="1700" d="M995 0L845 910L805 1400H1005L1231 220L1167 0H995ZM235 0L29 1400H423L507 232L541 0H235ZM517 0L463 220L693 1400H895L865 910L703 0H517ZM1143 0L1187 232L1277 1400H1671L1463 0H1143Z" />
<glyph unicode="X" horiz-adv-x="1300" d="M20 0L296 690L20 1400H426L627 826H655L856 1400H1262L986 690L1262 0H856L655 558H627L426 0H20Z" />
<glyph unicode="Y" horiz-adv-x="1300" d="M454 0V431L42 1400H426L640 771L854 1400H1238L828 431V0H454Z" />
<glyph unicode="Z" horiz-adv-x="1300" d="M174 0V270L732 1130H190V1400H1102V1130L540 270H1122V0H174Z" />
<glyph unicode="[" horiz-adv-x="1300" d="M396 -426V1626H1012V1330H770V-130H1012V-426H396Z" />
<glyph unicode="\" horiz-adv-x="946" d="M550 -284L52 1600H396L894 -284H550Z" />
<glyph unicode="]" horiz-adv-x="1300" d="M884 -426H268V-130H510V1330H268V1626H884V-426Z" />
<glyph unicode="^" horiz-adv-x="1300" d="M246 1120L454 1600H838L1046 1120H748L650 1352H642L544 1120H246Z" />
<glyph unicode="_" horiz-adv-x="1300" d="M-8 -346V-50H1308V-346H-8Z" />
<glyph unicode="`" horiz-adv-x="1300" d="M584 1114L212 1428H584L910 1114H584Z" />
<glyph unicode="a" horiz-adv-x="1300" d="M490 -22Q409 -22 339 -1T214 63T130 169T100 315Q100 386 125 439T195 530T295 591T412 625T532 636Q592 636 639 626T719 601T764 572V632Q764 657 752 677T716 711T661 734T590 742Q541 742 497 736T416 719T347 698T292
675L140 944Q179 964 252 982T418 1012T608 1024Q681 1024 755 1015T898 982T1020 919T1105 819T1136 674V270H1258V0H850L805 121Q791 89 751 56T646 1T490 -22ZM603 246Q640 246 674 257T732 284T764 316V358Q756 373 733 387T676 412T607 422Q572 422 539 415T485
390T464 335Q464 299 483 280T534 254T603 246Z" />
<glyph unicode="b" horiz-adv-x="1300" d="M132 0V1500H508V202L456 0H132ZM768 -22Q671 -22 597 22T473 133T398 271T373 396L503 442Q504 405 516 372T551 315T601 276T662 262Q718 262 757 292T817 376T838 502Q838 573 818 626T760 708T668 738Q635 738 608
725T558 690T521 640T496 582L378 630Q378 684 403 751T479 880T604 982T778 1022Q895 1022 994 966T1152 795T1212 502Q1212 369 1176 271T1078 107T936 10T768 -22Z" />
<glyph unicode="c" horiz-adv-x="1300" d="M700 -22Q617 -22 538 -3T389 55T267 157T184 304T154 502Q154 615 184 701T266 848T388 948T537 1005T700 1024Q786 1024 862 1006T1002 954T1114 868T1192 748L868 600Q860 634 842 670T792 731T711 756Q675 756 644
743T590 701T553 622T540 502Q540 432 553 384T589 305T644 260T711 246Q760 246 792 267T842 320T868 386L1191 238Q1160 175 1112 127T1001 45T863 -5T700 -22Z" />
<glyph unicode="d" horiz-adv-x="1300" d="M514 -22Q426 -22 347 10T205 107T106 270T70 502Q70 679 130 794T288 966T504 1022Q603 1022 678 982T803 880T878 751T904 630L786 582Q777 612 762 640T724 690T675 725T614 738Q560 738 522 709T464 626T444 502Q444
430 464 376T524 292T620 262Q652 262 680 276T731 314T765 372T779 442L909 396Q909 342 884 271T809 133T686 22T514 -22ZM1150 1500V102L982 270H1280V0H826L774 202V1500H1150Z" />
<glyph unicode="e" horiz-adv-x="1300" d="M654 -22Q545 -22 447 13T273 115T154 279T110 502Q110 627 152 724T269 888T444 989T657 1024Q770 1024 870 993T1046 900T1166 742T1210 517Q1210 491 1207 463T1199 412H412V624H826Q826 625 826 626T826 628Q826
657 808 687T754 737T666 758Q627 758 594 743T538 698T501 619T488 505Q488 425 509 367T573 278T678 246Q728 246 759 264T808 307T834 350L1166 190Q1133 139 1086 100T975 34T832 -8T654 -22Z" />
<glyph unicode="f" horiz-adv-x="1000" d="M246 0V1124Q246 1240 291 1316T411 1437T575 1500T752 1519Q821 1519 876 1508T958 1482V1209Q933 1224 898 1236T807 1249Q767 1249 733 1242T673 1215T634 1162T620 1074V0H246ZM32 730V1000H938V730H32Z" />
<glyph unicode="g" horiz-adv-x="1300" d="M627 -430Q530 -430 440 -407T279 -339T167 -226T125 -68H499Q499 -86 509 -102T537 -130T581 -149T637 -156Q678 -156 713 -137T771 -73T793 52V807L813 1000H1167V54Q1167 -47 1139 -125T1059 -261T940 -356T793 -412T627
-430ZM534 -22Q446 -22 367 10T225 107T126 270T90 502Q90 679 150 794T308 966T524 1022Q623 1022 698 982T823 880T898 751T924 630L806 582Q797 612 782 640T744 690T695 725T634 738Q580 738 542 709T484 626T464 502Q464 430 484 376T544 292T640 262Q672
262 700 276T751 314T785 372T799 442L929 396Q929 342 904 271T829 133T706 22T534 -22Z" />
<glyph unicode="h" horiz-adv-x="1300" d="M156 0V1500H530V0H156ZM798 0V552Q798 618 785 658T745 717T676 736Q643 736 617 725T570 694T538 651T522 604L454 646Q454 710 475 776T541 898T654 988T815 1022Q892 1022 957 998T1070 924T1145 796T1172 610V0H798Z" />
<glyph unicode="i" horiz-adv-x="1000" d="M52 0V270H326V730H92V1000H700V270H948V0H52ZM323 1440H700V1118H323V1440Z" />
<glyph unicode="j" horiz-adv-x="1000" d="M60 -400V-116H142Q198 -116 241 -105T314 -69T360 -8T376 82V730H80V1000H750V16Q750 -91 708 -169T589 -299T404 -375T164 -400H60ZM373 1440H750V1118H373V1440Z" />
<glyph unicode="k" horiz-adv-x="1300" d="M132 0V1500H508V665H648V397H508V0H132ZM837 0L362 564L760 574L1274 0H837ZM764 502L406 564L823 1000H1258L764 502Z" />
<glyph unicode="l" horiz-adv-x="1000" d="M58 0V270H310V1230H88V1500H686V270H938V0H58Z" />
<glyph unicode="m" horiz-adv-x="1700" d="M1252 0V601Q1252 670 1230 703T1152 736Q1116 736 1090 717T1048 671T1030 624L930 660Q930 731 961 796T1046 912T1168 992T1310 1022Q1417 1022 1487 979T1591 849T1626 629V0H1252ZM66 0V1000H400L440 816V0H66ZM660
0V601Q660 670 637 703T560 736Q524 736 497 717T455 671T438 624L338 660Q338 731 369 796T453 912T575 992T718 1022Q879 1022 956 928T1034 649V0H660Z" />
<glyph unicode="n" horiz-adv-x="1300" d="M146 0V1000H472L522 784V0H146ZM787 0V552Q787 618 774 658T734 717T665 736Q632 736 606 725T559 694T527 651T511 604L443 646Q443 710 464 776T530 898T643 988T804 1022Q881 1022 946 998T1060 924T1136 796T1163
610V0H787Z" />
<glyph unicode="o" horiz-adv-x="1300" d="M654 -22Q581 -22 504 -5T356 51T229 150T139 299T106 502Q106 617 139 704T228 852T356 951T504 1006T654 1024Q727 1024 804 1007T952 951T1079 852T1169 704T1202 502Q1202 386 1169 299T1080 151T952 51T804 -4T654
-22ZM654 246Q692 246 723 261T776 308T811 387T824 502Q824 568 812 616T777 695T723 741T654 756Q617 756 586 741T532 695T497 616T484 502Q484 436 496 388T531 308T585 262T654 246Z" />
<glyph unicode="p" horiz-adv-x="1300" d="M130 -400V1000H456L504 798V-400H130ZM766 -22Q669 -22 595 22T471 133T396 271T371 396L501 442Q502 405 514 372T549 315T599 276T660 262Q716 262 755 292T815 376T836 502Q836 573 816 626T758 708T666 738Q633
738 606 725T556 690T519 640T494 582L376 630Q376 684 401 751T477 880T602 982T776 1022Q893 1022 992 966T1150 795T1210 502Q1210 369 1174 271T1076 107T934 10T766 -22Z" />
<glyph unicode="q" horiz-adv-x="1300" d="M1148 -400H774V798L822 1000H1148V-400ZM512 -22Q424 -22 345 10T203 107T104 270T68 502Q68 679 128 794T286 966T502 1022Q601 1022 676 982T801 880T876 751T902 630L784 582Q775 612 760 640T722 690T673 725T612
738Q558 738 520 709T462 626T442 502Q442 430 462 376T522 292T618 262Q650 262 678 276T729 314T763 372T777 442L907 396Q907 342 882 271T807 133T684 22T512 -22Z" />
<glyph unicode="r" horiz-adv-x="1300" d="M212 0V270H392V730H212V1000H678L766 768V270H978V0H212ZM760 576L646 640Q646 710 670 769T736 876T829 956T936 1006T1044 1024Q1125 1024 1160 1011T1203 991L1130 686Q1123 693 1091 702T1002 712Q962 712 924 702T852
674T794 630T760 576Z" />
<glyph unicode="s" horiz-adv-x="1300" d="M652 -22Q528 -22 429 -3T256 58T130 162L418 346Q438 319 463 301T520 270T587 253T664 248Q697 248 726 251T779 261T815 277T828 299Q828 317 799 331T709 359T547 387Q472 398 402 419T277 478T190 571T158 708Q158
775 186 826T263 915T378 977T516 1012T664 1024Q788 1024 883 998T1044 931T1144 848L866 670Q853 689 831 705T778 733T713 751T640 758Q610 758 583 755T535 744T502 728T490 705Q490 688 516 677T593 656T714 636Q768 628 830 616T953 582T1063 528T1143 444T1173
324Q1173 252 1145 196T1066 99T949 31T807 -9T652 -22Z" />
<glyph unicode="t" horiz-adv-x="1300" d="M306 320V1317H678V330Q678 285 686 262T710 230T746 221Q767 221 784 228T812 260T823 340H1111Q1111 235 1077 165T984 55T851 -3T697 -21Q617 -21 547 -6T422 48T337 152T306 320ZM102 730V1000H1132V730H102Z" />
<glyph unicode="u" horiz-adv-x="1300" d="M478 -22Q402 -22 337 2T223 76T148 204T121 390V1000H495V448Q495 382 508 342T548 283T617 264Q650 264 676 275T723 306T755 349T771 396L839 354Q839 290 818 224T752 102T639 12T478 -22ZM854 0L768 258V1000H1142V200L1091
270H1252V0H854Z" />
<glyph unicode="v" horiz-adv-x="1300" d="M368 0L76 1000H468L638 296H650L820 1000H1212L920 0H368Z" />
<glyph unicode="w" horiz-adv-x="1700" d="M996 0L792 1000H1046L1250 0H996ZM226 0L40 1000H412L532 0H226ZM450 0L652 1000H906L704 0H450ZM1166 0L1286 1000H1658L1472 0H1166Z" />
<glyph unicode="x" horiz-adv-x="1300" d="M32 0L352 501L32 1000H442L656 637H644L858 1000H1268L948 501L1268 0H858L644 369H656L442 0H32Z" />
<glyph unicode="y" horiz-adv-x="1300" d="M402 -400L586 72L718 0H416L86 1000H468L690 186H633L860 1000H1236L770 -400H402Z" />
<glyph unicode="z" horiz-adv-x="1300" d="M184 0V270L654 730H200V1000H1074V730L610 270H1084V0H184Z" />
<glyph unicode="{" horiz-adv-x="1300" d="M288 580V732H320Q359 732 384 749T422 804T434 902V1276Q434 1365 469 1432T566 1546T706 1616T872 1640H986V1368H918Q870 1368 840 1356T796 1306T782 1190V816Q782 728 753 679T674 610T566 585T446 580H288ZM872
-474Q785 -474 706 -451T566 -381T470 -266T434 -110V264Q434 324 422 361T385 416T320 434H288V586H446Q506 586 565 582T674 557T752 488T782 350V-24Q782 -102 796 -140T840 -190T918 -202H986V-474H872Z" />
<glyph unicode="|" horiz-adv-x="1300" d="M503 -360V1600H805V-360H503Z" />
<glyph unicode="}" horiz-adv-x="1300" d="M982 580H824Q764 580 705 584T596 609T518 679T488 816V1190Q488 1268 474 1306T430 1356T352 1368H284V1640H398Q485 1640 564 1617T704 1547T800 1433T836 1276V902Q836 842 848 805T885 750T950 732H982V580ZM398
-474H284V-202H352Q400 -202 430 -190T474 -140T488 -24V350Q488 439 517 487T596 556T704 581T824 586H982V434H950Q911 434 886 417T848 362T836 264V-110Q836 -198 801 -266T704 -380T564 -450T398 -474Z" />
<glyph unicode="~" horiz-adv-x="1300" d="M756 614Q683 614 639 634T563 682T504 729T436 750Q378 750 334 710T270 632L96 780Q101 794 123 826T186 892T283 951T414 976Q487 976 531 955T607 907T666 859T734 838Q792 838 835 878T896 956L1070 806Q1063 790
1041 759T980 695T886 638T756 614Z" />
<glyph unicode="&#xa0;" horiz-adv-x="1000" />
<glyph unicode="&#xa1;" horiz-adv-x="1000" d="M646 528L704 -400H290L348 528H646ZM689 678H312V1000H689V678Z" />
<glyph unicode="&#xa2;" horiz-adv-x="1300" d="M674 170Q557 170 453 198T268 289T142 451T96 694Q96 839 142 939T268 1100T452 1188T674 1216Q836 1216 958 1149T1154 942L848 786Q831 825 803 858T739 912T658 932Q621 932 586 922T522 885T477 812T460 694Q460
624 476 578T521 504T585 466T658 454Q705 454 741 475T805 527T852 590L1156 432Q1107 346 1036 288T874 200T674 170ZM502 0V246H804V0H502ZM502 1160V1400H804V1160H502Z" />
<glyph unicode="&#xa3;" horiz-adv-x="1300" d="M54 562V830H922V562H54ZM392 212L42 182Q72 206 105 240T168 315T216 404T234 503Q234 556 221 615T191 736Q172 804 157 873T142 1010Q142 1101 188 1175T313 1302T489 1383T688 1412Q816 1412 906 1377T1052
1290T1134 1188L862 1024Q848 1058 821 1077T759 1105T688 1114Q657 1114 629 1106T578 1079T543 1034T530 970Q530 926 541 874T566 768Q581 712 592 657T604 554Q604 457 579 396T507 293T392 212ZM176 -48L42 182Q44 182 81 186T175 197T294 212T408 228Q418
238 447 254T519 283T616 296Q649 296 673 292T718 280Q744 272 770 266T836 260Q897 260 941 273T1020 300L1108 14Q1076 3 1001 -11T836 -26Q781 -26 731 -18T635 0Q596 9 560 14T488 20Q422 20 354 6T237 -24T176 -48Z" />
<glyph unicode="&#xa4;" horiz-adv-x="1300" d="M650 338Q551 338 463 362T306 436T199 561T160 740Q160 843 199 918T306 1043T462 1116T650 1140Q748 1140 836 1116T992 1043T1099 919T1138 740Q1138 637 1099 562T992 437T836 363T650 338ZM258 174L86 350L308
568L480 396L258 174ZM1038 180L818 402L988 572L1210 356L1038 180ZM650 614Q680 614 708 620T758 641T793 680T806 740Q806 775 793 798T758 836T708 857T650 864Q619 864 591 858T541 837T505 799T492 740Q492 705 505 681T540 642T591 621T650 614ZM308 912L86
1128L258 1304L480 1082L308 912ZM988 906L818 1078L1038 1298L1210 1124L988 906Z" />
<glyph unicode="&#xa5;" horiz-adv-x="1300" d="M187 446V676H1093V446H187ZM187 130V360H1093V130H187ZM454 0V431L42 1400H426L640 771L854 1400H1238L828 431V0H454Z" />
<glyph unicode="&#xa6;" horiz-adv-x="1300" d="M444 906V1600H746V906H444ZM444 -360V326H746V-360H444Z" />
<glyph unicode="&#xa7;" horiz-adv-x="1300" d="M584 -218Q463 -218 357 -185T173 -87T62 70L354 212Q364 181 390 143T463 76T584 48Q636 48 672 54T732 71T765 99T776 134Q776 149 768 161T744 184T705 204T652 220T586 232Q537 239 474 254T347 296T227 363T138
460T104 594Q104 668 149 727T265 831T413 903T552 940L752 778Q739 780 724 781T694 782Q663 782 630 775T564 754T507 720T467 675T452 618Q452 599 464 580T499 543T552 512T620 494Q655 489 715 475T845 435T976 366T1078 262T1118 116Q1118 36 1084 -21T994
-117T867 -178T724 -209T584 -218ZM822 254L570 366Q607 370 638 384T694 420T737 467T764 521T774 576Q774 608 767 630T744 668T705 692T651 708T582 720Q542 726 484 741T363 783T246 853T158 957T124 1104Q124 1177 158 1229T248 1317T370 1373T500 1403T616
1412Q718 1412 818 1385T992 1300T1092 1152L804 1002Q786 1046 755 1078T685 1127T606 1144Q578 1144 551 1141T502 1132T467 1114T454 1086Q454 1071 467 1058T503 1034T557 1015T624 1002Q661 997 722 983T851 942T980 871T1079 760T1118 602Q1118 552 1105
506T1068 420T1007 348T925 292T822 254Z" />
<glyph unicode="&#xa8;" horiz-adv-x="1300" d="M169 1440H546V1118H169V1440ZM709 1440H1086V1118H709V1440Z" />
<glyph unicode="&#xa9;" horiz-adv-x="1300" d="M654 88Q576 88 491 107T327 168T183 281T80 455T42 698Q42 838 80 940T182 1113T326 1226T491 1287T654 1306Q731 1306 815 1287T980 1226T1124 1114T1226 941T1264 698Q1264 558 1226 455T1124 281T980 168T816
107T654 88ZM660 388Q587 388 518 418T403 515T358 696Q358 810 403 877T517 974T660 1004Q732 1004 786 975T876 899T926 804L750 738Q740 764 720 790T656 816Q626 816 604 802T570 760T557 696Q557 660 569 633T604 591T656 576Q701 576 724 603T756 646L930
582Q917 540 883 495T793 419T660 388ZM654 284Q696 284 747 292T851 323T946 393T1015 513T1042 698Q1042 808 1016 882T946 1001T851 1070T748 1102T654 1110Q611 1110 559 1102T455 1071T359 1002T289 882T262 698Q262 588 288 514T359 393T455 324T559 292T654
284Z" />
<glyph unicode="&#xaa;" horiz-adv-x="1000" d="M410 1014Q326 1014 267 1063T208 1198Q208 1242 229 1274T284 1326T358 1355T437 1364Q491 1363 523 1347T562 1318V1352Q562 1374 538 1391T472 1408Q421 1408 374 1398T303 1379L240 1519Q269 1532 337 1543T482
1555Q553 1555 616 1534T719 1472T759 1373V1165H818V1026H607L581 1093Q576 1079 554 1060T496 1028T410 1014ZM482 1156Q505 1156 524 1168T549 1186V1228Q545 1233 526 1239T483 1245Q452 1245 436 1232T419 1199Q419 1179 434 1168T482 1156Z" />
<glyph unicode="&#xab;" horiz-adv-x="1300" d="M492 164L40 492L156 664L630 342L492 164ZM40 492V682H130V492H40ZM156 512L40 682L492 1010L630 832L156 512ZM1092 164L640 492L756 664L1230 342L1092 164ZM640 492V682H730V492H640ZM756 512L640 682L1092
1010L1230 832L756 512Z" />
<glyph unicode="&#xac;" horiz-adv-x="1300" d="M798 172V757H1087V172H798ZM251 460V756H911V460H251Z" />
<glyph unicode="&#xad;" horiz-adv-x="1300" d="M381 460V756H895V460H381Z" />
<glyph unicode="&#xae;" horiz-adv-x="1300" d="M636 378Q545 378 452 405T280 492T155 650T107 891Q107 1033 154 1130T280 1288T451 1375T636 1402Q726 1402 819 1375T990 1288T1115 1131T1163 891Q1163 749 1116 651T990 492T819 405T636 378ZM698 651L624
881H750L851 651H698ZM636 538Q681 538 739 549T853 596T944 702T980 891Q980 1008 944 1078T853 1184T740 1230T636 1242Q591 1242 532 1231T418 1184T326 1079T289 891Q289 773 324 703T415 597T529 550T636 538ZM450 651V1133H670Q718 1133 753 1118T809 1071T829
987Q829 924 807 891T749 846T672 833H596V651H450ZM596 947H649Q673 947 684 957T696 984Q696 1000 686 1011T649 1022H596V947Z" />
<glyph unicode="&#xaf;" horiz-adv-x="1300" d="M222 1242V1480H976V1242H222Z" />
<glyph unicode="&#xb0;" horiz-adv-x="1000" d="M529 1020Q456 1020 395 1056T298 1154T261 1288Q261 1360 297 1420T395 1517T529 1554Q601 1554 661 1518T758 1421T795 1288Q795 1215 759 1154T662 1057T529 1020ZM529 1220Q556 1220 575 1240T595 1288Q595
1315 576 1334T529 1354Q501 1354 481 1335T461 1288Q461 1260 481 1240T529 1220Z" />
<glyph unicode="&#xb1;" horiz-adv-x="1300" d="M198 622V870H1012V622H198ZM198 126V374H1012V126H198ZM458 438V1052H754V438H458Z" />
<glyph unicode="&#xb2;" horiz-adv-x="779" d="M37 560V758Q59 769 95 789T175 837T261 898T340 968T398 1043T420 1118Q420 1145 415 1162T398 1187T367 1196Q321 1196 298 1150T266 1063L23 1164Q38 1237 87 1291T209 1376T366 1407Q465 1407 541 1382T660 1297T703
1132Q703 1077 678 1025T613 926T531 845T454 788T404 762H694V560H37Z" />
<glyph unicode="&#xb3;" horiz-adv-x="780" d="M383 547Q292 547 222 571T105 640T37 744L274 861Q288 829 303 807T338 773T386 761Q411 761 428 772T453 804T462 848Q462 874 454 893T429 923T383 934Q368 934 352 930T324 917L176 1082L350 1197H64V1400H685V1197L488
1073Q490 1074 499 1075T519 1078T540 1080Q584 1080 629 1057T705 982T736 846Q736 773 710 718T635 624T523 567T383 547Z" />
<glyph unicode="&#xb4;" horiz-adv-x="1300" d="M558 1114H232L558 1428H930L558 1114Z" />
<glyph unicode="&#xb5;" horiz-adv-x="1300" d="M121 -400V1000H491V-400H121ZM478 -22Q402 -22 337 2T223 76T148 204T121 390V1000H495V448Q495 382 508 342T548 283T617 264Q650 264 676 275T723 306T755 349T771 396L839 354Q839 290 818 224T752 102T639
12T478 -22ZM854 0L768 258V1000H1142V200L1091 270H1252V0H854Z" />
<glyph unicode="&#xb6;" horiz-adv-x="1300" d="M486 -240V526H446Q391 526 326 548T203 621T107 757T70 970Q70 1090 108 1172T207 1305T342 1377T486 1400H1166V-240H890V1130H762V-240H486Z" />
<glyph unicode="&#xb7;" horiz-adv-x="1000" d="M323 840H700V518H323V840Z" />
<glyph unicode="&#xb8;" horiz-adv-x="1300" d="M585 -421Q553 -421 515 -418T439 -410T366 -397T308 -382L387 -222Q431 -235 469 -243T543 -256T615 -261Q655 -261 683 -255T726 -237T741 -205Q741 -187 729 -178T687 -169Q675 -169 657 -172T620 -184T588 -205L412
-161L489 0H695L616 -152L604 -128Q615 -106 639 -90T699 -65T776 -56Q823 -56 862 -70T925 -115T949 -200Q949 -274 904 -323T776 -397T585 -421Z" />
<glyph unicode="&#xb9;" horiz-adv-x="781" d="M73 560V763H228V1152L79 1096V1330L266 1400H514V763H669V560H73Z" />
<glyph unicode="&#xba;" horiz-adv-x="1000" d="M746 1020Q673 1020 612 1056T515 1154T478 1288Q478 1360 514 1420T612 1517T746 1554Q818 1554 878 1518T975 1421T1012 1288Q1012 1215 976 1154T879 1057T746 1020ZM746 1220Q773 1220 792 1240T812 1288Q812
1315 793 1334T746 1354Q718 1354 698 1335T678 1288Q678 1260 698 1240T746 1220Z" />
<glyph unicode="&#xbb;" horiz-adv-x="1300" d="M808 164L670 342L1144 664L1260 492L808 164ZM1260 492H1170V682H1260V492ZM1144 512L670 832L808 1010L1260 682L1144 512ZM208 164L70 342L544 664L660 492L208 164ZM660 492H570V682H660V492ZM544 512L70 832L208
1010L660 682L544 512Z" />
<glyph unicode="&#xbc;" horiz-adv-x="1822" d="M73 560V763H228V1152L79 1096V1330L266 1400H514V763H669V560H73ZM556 0L1072 1400H1267L753 0H556ZM1455 0V141H1081V344L1297 840H1717V344H1814V141H1717V0H1455ZM1355 344H1455V694H1483L1355 344Z" />
<glyph unicode="&#xbd;" horiz-adv-x="1820" d="M73 560V763H228V1152L79 1096V1330L266 1400H514V763H669V560H73ZM556 0L1072 1400H1267L753 0H556ZM1078 0V198Q1100 209 1136 229T1216 277T1302 338T1381 408T1439 483T1461 558Q1461 585 1456 602T1439 627T1408
636Q1362 636 1339 590T1307 503L1064 604Q1079 677 1128 731T1250 816T1407 847Q1506 847 1582 822T1701 737T1744 572Q1744 517 1719 465T1654 366T1572 285T1495 228T1445 202H1735V0H1078Z" />
<glyph unicode="&#xbe;" horiz-adv-x="1821" d="M383 547Q292 547 222 571T105 640T37 744L274 861Q288 829 303 807T338 773T386 761Q411 761 428 772T453 804T462 848Q462 874 454 893T429 923T383 934Q368 934 352 930T324 917L176 1082L350 1197H64V1400H685V1197L488
1073Q490 1074 499 1075T519 1078T540 1080Q584 1080 629 1057T705 982T736 846Q736 773 710 718T635 624T523 567T383 547ZM555 0L1071 1400H1266L752 0H555ZM1454 0V141H1080V344L1296 840H1716V344H1813V141H1716V0H1454ZM1354 344H1454V694H1482L1354 344Z"
/>
<glyph unicode="&#xbf;" horiz-adv-x="1300" d="M844 538V506Q844 441 823 388T768 292T693 212T613 144Q577 115 547 88T499 33T480 -24Q480 -48 488 -65T514 -94T558 -111T618 -117Q658 -117 698 -103T775 -63T840 -2T884 74L1166 -88Q1139 -168 1065 -242T880
-364T628 -412Q520 -412 427 -391T265 -325T157 -210T118 -40Q118 37 152 96T238 204T345 295Q390 330 429 364T492 436T516 516V538H844ZM867 678H490V1000H867V678Z" />
<glyph unicode="&#xc0;" horiz-adv-x="1300" d="M1246 0H869L819 282H485L435 0H58L362 1400H942L1246 0ZM642 1130L537 552H767L662 1130H642ZM488 1514L116 1828H488L814 1514H488Z" />
<glyph unicode="&#xc1;" horiz-adv-x="1300" d="M1246 0H869L819 282H485L435 0H58L362 1400H942L1246 0ZM642 1130L537 552H767L662 1130H642ZM781 1514H455L781 1828H1153L781 1514Z" />
<glyph unicode="&#xc2;" horiz-adv-x="1300" d="M1246 0H869L819 282H485L435 0H58L362 1400H942L1246 0ZM642 1130L537 552H767L662 1130H642ZM228 1523L538 1817H766L1076 1523H792L652 1671L512 1523H228Z" />
<glyph unicode="&#xc3;" horiz-adv-x="1300" d="M1246 0H869L819 282H485L435 0H58L362 1400H942L1246 0ZM642 1130L537 552H767L662 1130H642ZM759 1480Q711 1480 679 1500T622 1542Q602 1560 582 1573T539 1586Q495 1586 470 1548T436 1478L308 1586Q314 1618
340 1664T412 1746T519 1782Q566 1782 599 1763T659 1720Q682 1701 702 1688T748 1674Q788 1674 813 1712T848 1782L974 1672Q967 1637 941 1592T870 1514T759 1480Z" />
<glyph unicode="&#xc4;" horiz-adv-x="1300" d="M1246 0H869L819 282H485L435 0H58L362 1400H942L1246 0ZM642 1130L537 552H767L662 1130H642ZM195 1840H572V1518H195V1840ZM735 1840H1112V1518H735V1840Z" />
<glyph unicode="&#xc5;" horiz-adv-x="1300" d="M1246 0H869L819 282H485L435 0H58L362 1400H942L1246 0ZM642 1130L537 552H767L662 1130H642ZM655 1455Q585 1455 528 1487T436 1576T401 1705Q401 1773 435 1829T527 1919T655 1953Q722 1953 778 1920T869 1830T903
1705Q903 1633 869 1577T779 1488T655 1455ZM655 1629Q684 1629 704 1650T725 1706Q725 1735 705 1755T655 1775Q621 1775 601 1755T581 1706Q581 1672 601 1651T655 1629Z" />
<glyph unicode="&#xc6;" horiz-adv-x="1700" d="M844 0V1130H624L658 1400H1616V1130H1218V822H1564V554H1218V270H1616V0H844ZM480 162L514 412H976L936 162H480ZM60 0L572 1400H924L464 0H60Z" />
<glyph unicode="&#xc7;" horiz-adv-x="1300" d="M683 -421Q651 -421 613 -418T537 -410T464 -397T406 -382L485 -222Q529 -235 567 -243T641 -256T713 -261Q753 -261 781 -255T824 -237T839 -205Q839 -187 827 -178T785 -169Q773 -169 755 -172T718 -184T686 -205L510
-161L587 0H793L714 -152L702 -128Q713 -106 737 -90T797 -65T874 -56Q921 -56 960 -70T1023 -115T1047 -200Q1047 -274 1002 -323T874 -397T683 -421ZM689 -22Q604 -22 516 -2T348 67T205 198T106 403T69 696Q69 866 105 988T205 1193T348 1323T516 1391T689 1412Q783
1412 865 1388T1015 1317T1136 1200T1221 1038L897 876Q887 915 871 960T831 1045T772 1112T689 1138Q642 1138 599 1114T522 1038T469 901T449 696Q449 575 468 490T521 353T598 276T689 252Q737 252 772 278T831 344T871 430T897 514L1221 352Q1188 261 1136
191T1016 74T865 2T689 -22Z" />
<glyph unicode="&#xc8;" horiz-adv-x="1300" d="M172 0V1400H1150V1130H546V822H1082V554H546V270H1150V0H172ZM516 1514L144 1828H516L842 1514H516Z" />
<glyph unicode="&#xc9;" horiz-adv-x="1300" d="M172 0V1400H1150V1130H546V822H1082V554H546V270H1150V0H172ZM809 1514H483L809 1828H1181L809 1514Z" />
<glyph unicode="&#xca;" horiz-adv-x="1300" d="M172 0V1400H1150V1130H546V822H1082V554H546V270H1150V0H172ZM256 1523L566 1817H794L1104 1523H820L680 1671L540 1523H256Z" />
<glyph unicode="&#xcb;" horiz-adv-x="1300" d="M172 0V1400H1150V1130H546V822H1082V554H546V270H1150V0H172ZM223 1840H600V1518H223V1840ZM763 1840H1140V1518H763V1840Z" />
<glyph unicode="&#xcc;" horiz-adv-x="1300" d="M186 0V270H462V1130H186V1400H1114V1130H836V270H1114V0H186ZM488 1514L116 1828H488L814 1514H488Z" />
<glyph unicode="&#xcd;" horiz-adv-x="1300" d="M186 0V270H462V1130H186V1400H1114V1130H836V270H1114V0H186ZM781 1514H455L781 1828H1153L781 1514Z" />
<glyph unicode="&#xce;" horiz-adv-x="1300" d="M186 0V270H462V1130H186V1400H1114V1130H836V270H1114V0H186ZM228 1523L538 1817H766L1076 1523H792L652 1671L512 1523H228Z" />
<glyph unicode="&#xcf;" horiz-adv-x="1300" d="M186 0V270H462V1130H186V1400H1114V1130H836V270H1114V0H186ZM195 1840H572V1518H195V1840ZM735 1840H1112V1518H735V1840Z" />
<glyph unicode="&#xd0;" horiz-adv-x="1300" d="M105 0V580H3V820H105V1400H579Q653 1400 729 1390T877 1354T1011 1279T1120 1153T1194 965T1221 700Q1221 548 1195 436T1121 247T1011 121T877 46T729 10T579 0H105ZM479 270H549Q623 270 677 293T767 368T820
501T837 700Q837 817 820 899T768 1032T678 1106T549 1130H479V820H664V580H479V270Z" />
<glyph unicode="&#xd1;" horiz-adv-x="1300" d="M78 0V1400H632L922 304H850V1400H1224V0H754L437 1092H452V0H78ZM757 1480Q709 1480 677 1500T620 1542Q600 1560 580 1573T537 1586Q493 1586 468 1548T434 1478L306 1586Q312 1618 338 1664T410 1746T517 1782Q564
1782 597 1763T657 1720Q680 1701 700 1688T746 1674Q786 1674 811 1712T846 1782L972 1672Q965 1637 939 1592T868 1514T757 1480Z" />
<glyph unicode="&#xd2;" horiz-adv-x="1300" d="M646 -22Q554 -22 466 3T300 81T164 218T72 421T38 696Q38 851 71 969T164 1172T300 1309T465 1387T646 1412Q737 1412 825 1387T990 1309T1126 1172T1218 970T1252 696Q1252 540 1219 422T1127 219T991 81T825
3T646 -22ZM646 252Q692 252 733 276T806 354T856 491T874 696Q874 815 856 899T806 1036T733 1113T646 1138Q600 1138 558 1114T485 1037T435 900T416 696Q416 576 434 492T484 354T558 277T646 252ZM476 1514L104 1828H476L802 1514H476Z" />
<glyph unicode="&#xd3;" horiz-adv-x="1300" d="M646 -22Q554 -22 466 3T300 81T164 218T72 421T38 696Q38 851 71 969T164 1172T300 1309T465 1387T646 1412Q737 1412 825 1387T990 1309T1126 1172T1218 970T1252 696Q1252 540 1219 422T1127 219T991 81T825
3T646 -22ZM646 252Q692 252 733 276T806 354T856 491T874 696Q874 815 856 899T806 1036T733 1113T646 1138Q600 1138 558 1114T485 1037T435 900T416 696Q416 576 434 492T484 354T558 277T646 252ZM769 1514H443L769 1828H1141L769 1514Z" />
<glyph unicode="&#xd4;" horiz-adv-x="1300" d="M646 -22Q554 -22 466 3T300 81T164 218T72 421T38 696Q38 851 71 969T164 1172T300 1309T465 1387T646 1412Q737 1412 825 1387T990 1309T1126 1172T1218 970T1252 696Q1252 540 1219 422T1127 219T991 81T825
3T646 -22ZM646 252Q692 252 733 276T806 354T856 491T874 696Q874 815 856 899T806 1036T733 1113T646 1138Q600 1138 558 1114T485 1037T435 900T416 696Q416 576 434 492T484 354T558 277T646 252ZM216 1523L526 1817H754L1064 1523H780L640 1671L500 1523H216Z"
/>
<glyph unicode="&#xd5;" horiz-adv-x="1300" d="M646 -22Q554 -22 466 3T300 81T164 218T72 421T38 696Q38 851 71 969T164 1172T300 1309T465 1387T646 1412Q737 1412 825 1387T990 1309T1126 1172T1218 970T1252 696Q1252 540 1219 422T1127 219T991 81T825
3T646 -22ZM646 252Q692 252 733 276T806 354T856 491T874 696Q874 815 856 899T806 1036T733 1113T646 1138Q600 1138 558 1114T485 1037T435 900T416 696Q416 576 434 492T484 354T558 277T646 252ZM747 1480Q699 1480 667 1500T610 1542Q590 1560 570 1573T527
1586Q483 1586 458 1548T424 1478L296 1586Q302 1618 328 1664T400 1746T507 1782Q554 1782 587 1763T647 1720Q670 1701 690 1688T736 1674Q776 1674 801 1712T836 1782L962 1672Q955 1637 929 1592T858 1514T747 1480Z" />
<glyph unicode="&#xd6;" horiz-adv-x="1300" d="M646 -22Q554 -22 466 3T300 81T164 218T72 421T38 696Q38 851 71 969T164 1172T300 1309T465 1387T646 1412Q737 1412 825 1387T990 1309T1126 1172T1218 970T1252 696Q1252 540 1219 422T1127 219T991 81T825
3T646 -22ZM646 252Q692 252 733 276T806 354T856 491T874 696Q874 815 856 899T806 1036T733 1113T646 1138Q600 1138 558 1114T485 1037T435 900T416 696Q416 576 434 492T484 354T558 277T646 252ZM183 1840H560V1518H183V1840ZM723 1840H1100V1518H723V1840Z"
/>
<glyph unicode="&#xd7;" horiz-adv-x="1300" d="M796 208L204 800L414 1008L1006 416L796 208ZM412 208L204 416L796 1008L1004 800L412 208Z" />
<glyph unicode="&#xd8;" horiz-adv-x="1300" d="M44 100L1030 1443L1256 1286L270 -57L44 100ZM646 -22Q554 -22 466 3T300 81T164 218T72 421T38 696Q38 851 71 969T164 1172T300 1309T465 1387T646 1412Q737 1412 825 1387T990 1309T1126 1172T1218 970T1252
696Q1252 540 1219 422T1127 219T991 81T825 3T646 -22ZM646 252Q692 252 733 276T806 354T856 491T874 696Q874 815 856 899T806 1036T733 1113T646 1138Q600 1138 558 1114T485 1037T435 900T416 696Q416 576 434 492T484 354T558 277T646 252Z" />
<glyph unicode="&#xd9;" horiz-adv-x="1300" d="M652 -22Q543 -22 445 5T271 93T150 258T106 512V1400H480V528Q480 427 499 369T557 287T652 262Q708 262 746 286T803 369T822 528V1400H1196V512Q1196 361 1153 258T1034 94T860 5T652 -22ZM486 1514L114 1828H486L812
1514H486Z" />
<glyph unicode="&#xda;" horiz-adv-x="1300" d="M652 -22Q543 -22 445 5T271 93T150 258T106 512V1400H480V528Q480 427 499 369T557 287T652 262Q708 262 746 286T803 369T822 528V1400H1196V512Q1196 361 1153 258T1034 94T860 5T652 -22ZM779 1514H453L779
1828H1151L779 1514Z" />
<glyph unicode="&#xdb;" horiz-adv-x="1300" d="M652 -22Q543 -22 445 5T271 93T150 258T106 512V1400H480V528Q480 427 499 369T557 287T652 262Q708 262 746 286T803 369T822 528V1400H1196V512Q1196 361 1153 258T1034 94T860 5T652 -22ZM226 1523L536 1817H764L1074
1523H790L650 1671L510 1523H226Z" />
<glyph unicode="&#xdc;" horiz-adv-x="1300" d="M652 -22Q543 -22 445 5T271 93T150 258T106 512V1400H480V528Q480 427 499 369T557 287T652 262Q708 262 746 286T803 369T822 528V1400H1196V512Q1196 361 1153 258T1034 94T860 5T652 -22ZM193 1840H570V1518H193V1840ZM733
1840H1110V1518H733V1840Z" />
<glyph unicode="&#xdd;" horiz-adv-x="1300" d="M454 0V431L42 1400H426L640 771L854 1400H1238L828 431V0H454ZM767 1514H441L767 1828H1139L767 1514Z" />
<glyph unicode="&#xde;" horiz-adv-x="1300" d="M134 0V1400H508V1176H654Q704 1176 769 1168T900 1135T1023 1060T1113 925T1148 714Q1148 587 1114 504T1023 370T901 296T769 264T654 256H508V0H134ZM508 526H628Q652 526 673 530T713 545T744 578T765 632T772
714Q772 763 765 796T745 851T713 885T674 901T628 906H508V526Z" />
<glyph unicode="&#xdf;" horiz-adv-x="1300" d="M752 -22Q708 -22 663 -17T579 -5T516 10L582 297Q614 288 642 282T706 276Q751 276 786 286T847 316T885 360T898 414Q898 451 879 480T829 535T765 585Q729 612 695 640T640 702T618 782Q618 827 632 858T667
913T711 957Q730 974 745 991T770 1028T780 1074Q780 1095 771 1116T744 1155T699 1183T637 1194Q600 1194 564 1183T499 1147T452 1083T434 988V0H60V1000Q60 1134 110 1226T243 1374T429 1456T634 1482Q762 1482 874 1440T1056 1312T1126 1098Q1126 1030 1110
984T1069 907T1022 856Q1003 838 991 823T978 790Q978 778 994 766T1036 737Q1066 719 1102 693T1171 628T1225 534T1246 404Q1246 289 1202 208T1084 76T924 2T752 -22Z" />
<glyph unicode="&#xe0;" horiz-adv-x="1300" d="M490 -22Q409 -22 339 -1T214 63T130 169T100 315Q100 386 125 439T195 530T295 591T412 625T532 636Q592 636 639 626T719 601T764 572V632Q764 657 752 677T716 711T661 734T590 742Q541 742 497 736T416 719T347
698T292 675L140 944Q179 964 252 982T418 1012T608 1024Q681 1024 755 1015T898 982T1020 919T1105 819T1136 674V270H1258V0H850L805 121Q791 89 751 56T646 1T490 -22ZM603 246Q640 246 674 257T732 284T764 316V358Q756 373 733 387T676 412T607 422Q572 422
539 415T485 390T464 335Q464 299 483 280T534 254T603 246ZM712 1114L340 1428H712L1038 1114H712Z" />
<glyph unicode="&#xe1;" horiz-adv-x="1300" d="M490 -22Q409 -22 339 -1T214 63T130 169T100 315Q100 386 125 439T195 530T295 591T412 625T532 636Q592 636 639 626T719 601T764 572V632Q764 657 752 677T716 711T661 734T590 742Q541 742 497 736T416 719T347
698T292 675L140 944Q179 964 252 982T418 1012T608 1024Q681 1024 755 1015T898 982T1020 919T1105 819T1136 674V270H1258V0H850L805 121Q791 89 751 56T646 1T490 -22ZM603 246Q640 246 674 257T732 284T764 316V358Q756 373 733 387T676 412T607 422Q572 422
539 415T485 390T464 335Q464 299 483 280T534 254T603 246ZM749 1114H423L749 1428H1121L749 1114Z" />
<glyph unicode="&#xe2;" horiz-adv-x="1300" d="M490 -22Q409 -22 339 -1T214 63T130 169T100 315Q100 386 125 439T195 530T295 591T412 625T532 636Q592 636 639 626T719 601T764 572V632Q764 657 752 677T716 711T661 734T590 742Q541 742 497 736T416 719T347
698T292 675L140 944Q179 964 252 982T418 1012T608 1024Q681 1024 755 1015T898 982T1020 919T1105 819T1136 674V270H1258V0H850L805 121Q791 89 751 56T646 1T490 -22ZM603 246Q640 246 674 257T732 284T764 316V358Q756 373 733 387T676 412T607 422Q572 422
539 415T485 390T464 335Q464 299 483 280T534 254T603 246ZM452 1123L762 1417H990L1300 1123H1016L876 1271L736 1123H452Z" />
<glyph unicode="&#xe3;" horiz-adv-x="1300" d="M490 -22Q409 -22 339 -1T214 63T130 169T100 315Q100 386 125 439T195 530T295 591T412 625T532 636Q592 636 639 626T719 601T764 572V632Q764 657 752 677T716 711T661 734T590 742Q541 742 497 736T416 719T347
698T292 675L140 944Q179 964 252 982T418 1012T608 1024Q681 1024 755 1015T898 982T1020 919T1105 819T1136 674V270H1258V0H850L805 121Q791 89 751 56T646 1T490 -22ZM603 246Q640 246 674 257T732 284T764 316V358Q756 373 733 387T676 412T607 422Q572 422
539 415T485 390T464 335Q464 299 483 280T534 254T603 246ZM983 1080Q935 1080 903 1100T846 1142Q826 1160 806 1173T763 1186Q719 1186 694 1148T660 1078L532 1186Q538 1218 564 1264T636 1346T743 1382Q790 1382 823 1363T883 1320Q906 1301 926 1288T972
1274Q1012 1274 1037 1312T1072 1382L1198 1272Q1191 1237 1165 1192T1094 1114T983 1080Z" />
<glyph unicode="&#xe4;" horiz-adv-x="1300" d="M490 -22Q409 -22 339 -1T214 63T130 169T100 315Q100 386 125 439T195 530T295 591T412 625T532 636Q592 636 639 626T719 601T764 572V632Q764 657 752 677T716 711T661 734T590 742Q541 742 497 736T416 719T347
698T292 675L140 944Q179 964 252 982T418 1012T608 1024Q681 1024 755 1015T898 982T1020 919T1105 819T1136 674V270H1258V0H850L805 121Q791 89 751 56T646 1T490 -22ZM603 246Q640 246 674 257T732 284T764 316V358Q756 373 733 387T676 412T607 422Q572 422
539 415T485 390T464 335Q464 299 483 280T534 254T603 246ZM419 1440H796V1118H419V1440ZM959 1440H1336V1118H959V1440Z" />
<glyph unicode="&#xe5;" horiz-adv-x="1300" d="M490 -22Q409 -22 339 -1T214 63T130 169T100 315Q100 386 125 439T195 530T295 591T412 625T532 636Q592 636 639 626T719 601T764 572V632Q764 657 752 677T716 711T661 734T590 742Q541 742 497 736T416 719T347
698T292 675L140 944Q179 964 252 982T418 1012T608 1024Q681 1024 755 1015T898 982T1020 919T1105 819T1136 674V270H1258V0H850L805 121Q791 89 751 56T646 1T490 -22ZM603 246Q640 246 674 257T732 284T764 316V358Q756 373 733 387T676 412T607 422Q572 422
539 415T485 390T464 335Q464 299 483 280T534 254T603 246ZM879 1055Q809 1055 752 1087T660 1176T625 1305Q625 1373 659 1429T751 1519T879 1553Q946 1553 1002 1520T1093 1430T1127 1305Q1127 1233 1093 1177T1003 1088T879 1055ZM879 1229Q908 1229 928 1250T949
1306Q949 1335 929 1355T879 1375Q845 1375 825 1355T805 1306Q805 1272 825 1251T879 1229Z" />
<glyph unicode="&#xe6;" horiz-adv-x="1700" d="M442 -22Q336 -22 258 0T127 66T50 174T24 322Q24 389 43 442T99 536T184 603T294 643T422 656Q477 656 517 646T581 621T614 596V632Q614 653 609 672T591 708T554 733T490 742Q425 742 369 733T265 710T182 684L60
954Q99 970 172 986T338 1013T528 1024Q593 1024 647 1015T747 987T828 941Q871 969 919 987T1022 1014T1136 1024Q1241 1024 1335 993T1503 900T1617 742T1659 517Q1659 491 1656 463T1648 412H993Q1001 360 1020 323T1070 266T1147 246Q1186 246 1213 264T1257
307T1283 350L1605 190Q1572 139 1528 100T1427 34T1297 -8T1133 -22Q1069 -22 1010 -10T897 25T798 83Q758 53 705 30T587 -8T442 -22ZM508 236Q543 236 566 249T602 284T614 330V374Q609 385 600 397T578 419T548 435T508 442Q465 442 439 428T400 390T388 334Q388
305 401 283T441 249T508 236ZM997 624H1275V628Q1275 650 1267 672T1241 714T1200 746T1145 758Q1103 758 1073 744T1025 700T997 624Z" />
<glyph unicode="&#xe7;" horiz-adv-x="1300" d="M700 -22Q617 -22 538 -3T389 55T267 157T184 304T154 502Q154 615 184 701T266 848T388 948T537 1005T700 1024Q786 1024 862 1006T1002 954T1114 868T1192 748L868 600Q860 634 842 670T792 731T711 756Q675 756
644 743T590 701T553 622T540 502Q540 432 553 384T589 305T644 260T711 246Q760 246 792 267T842 320T868 386L1191 238Q1160 175 1112 127T1001 45T863 -5T700 -22ZM693 -421Q661 -421 623 -418T547 -410T474 -397T416 -382L495 -222Q539 -235 577 -243T651 -256T723
-261Q763 -261 791 -255T834 -237T849 -205Q849 -187 837 -178T795 -169Q783 -169 765 -172T728 -184T696 -205L520 -161L597 0H803L724 -152L712 -128Q723 -106 747 -90T807 -65T884 -56Q931 -56 970 -70T1033 -115T1057 -200Q1057 -274 1012 -323T884 -397T693
-421Z" />
<glyph unicode="&#xe8;" horiz-adv-x="1300" d="M654 -22Q545 -22 447 13T273 115T154 279T110 502Q110 627 152 724T269 888T444 989T657 1024Q770 1024 870 993T1046 900T1166 742T1210 517Q1210 491 1207 463T1199 412H412V624H826Q826 625 826 626T826 628Q826
657 808 687T754 737T666 758Q627 758 594 743T538 698T501 619T488 505Q488 425 509 367T573 278T678 246Q728 246 759 264T808 307T834 350L1166 190Q1133 139 1086 100T975 34T832 -8T654 -22ZM755 1114L383 1428H755L1081 1114H755Z" />
<glyph unicode="&#xe9;" horiz-adv-x="1300" d="M654 -22Q545 -22 447 13T273 115T154 279T110 502Q110 627 152 724T269 888T444 989T657 1024Q770 1024 870 993T1046 900T1166 742T1210 517Q1210 491 1207 463T1199 412H412V624H826Q826 625 826 626T826 628Q826
657 808 687T754 737T666 758Q627 758 594 743T538 698T501 619T488 505Q488 425 509 367T573 278T678 246Q728 246 759 264T808 307T834 350L1166 190Q1133 139 1086 100T975 34T832 -8T654 -22ZM792 1114H466L792 1428H1164L792 1114Z" />
<glyph unicode="&#xea;" horiz-adv-x="1300" d="M654 -22Q545 -22 447 13T273 115T154 279T110 502Q110 627 152 724T269 888T444 989T657 1024Q770 1024 870 993T1046 900T1166 742T1210 517Q1210 491 1207 463T1199 412H412V624H826Q826 625 826 626T826 628Q826
657 808 687T754 737T666 758Q627 758 594 743T538 698T501 619T488 505Q488 425 509 367T573 278T678 246Q728 246 759 264T808 307T834 350L1166 190Q1133 139 1086 100T975 34T832 -8T654 -22ZM495 1123L805 1417H1033L1343 1123H1059L919 1271L779 1123H495Z"
/>
<glyph unicode="&#xeb;" horiz-adv-x="1300" d="M654 -22Q545 -22 447 13T273 115T154 279T110 502Q110 627 152 724T269 888T444 989T657 1024Q770 1024 870 993T1046 900T1166 742T1210 517Q1210 491 1207 463T1199 412H412V624H826Q826 625 826 626T826 628Q826
657 808 687T754 737T666 758Q627 758 594 743T538 698T501 619T488 505Q488 425 509 367T573 278T678 246Q728 246 759 264T808 307T834 350L1166 190Q1133 139 1086 100T975 34T832 -8T654 -22ZM206 1440H583V1118H206V1440ZM746 1440H1123V1118H746V1440Z" />
<glyph unicode="&#xec;" horiz-adv-x="1000" d="M92 0V270H356V730H92V1000H730V270H958V0H92ZM344 1114L-28 1428H344L670 1114H344Z" />
<glyph unicode="&#xed;" horiz-adv-x="1000" d="M92 0V270H356V730H92V1000H730V270H958V0H92ZM637 1114H311L637 1428H1009L637 1114Z" />
<glyph unicode="&#xee;" horiz-adv-x="1000" d="M92 0V270H356V730H92V1000H730V270H958V0H92ZM84 1123L394 1417H622L932 1123H648L508 1271L368 1123H84Z" />
<glyph unicode="&#xef;" horiz-adv-x="1000" d="M92 0V270H356V730H92V1000H730V270H958V0H92ZM307 1440H684V1118H307V1440ZM847 1440H1224V1118H847V1440Z" />
<glyph unicode="&#xf0;" horiz-adv-x="1300" d="M634 -20Q530 -20 430 8T250 99T122 262T74 504Q74 644 116 743T231 905T397 997T592 1026Q657 1026 729 1003T867 938T980 835T1044 701L837 558Q833 606 820 640T784 697T729 731T656 742Q613 742 577 725T516
677T476 602T462 504Q462 452 476 408T515 332T574 282T648 264Q696 264 731 285T788 348T821 450T832 588Q832 689 811 794T746 998T635 1181T478 1324T272 1408L394 1622Q495 1599 610 1548T835 1416T1036 1225T1180 973T1234 658Q1234 463 1184 333T1048 125T855
14T634 -20ZM484 1098L322 1252L802 1628L936 1474L484 1098Z" />
<glyph unicode="&#xf1;" horiz-adv-x="1300" d="M146 0V1000H472L522 784V0H146ZM787 0V552Q787 618 774 658T734 717T665 736Q632 736 606 725T559 694T527 651T511 604L443 646Q443 710 464 776T530 898T643 988T804 1022Q881 1022 946 998T1060 924T1136 796T1163
610V0H787ZM1009 1080Q961 1080 929 1100T872 1142Q852 1160 832 1173T789 1186Q745 1186 720 1148T686 1078L558 1186Q564 1218 590 1264T662 1346T769 1382Q816 1382 849 1363T909 1320Q932 1301 952 1288T998 1274Q1038 1274 1063 1312T1098 1382L1224 1272Q1217
1237 1191 1192T1120 1114T1009 1080Z" />
<glyph unicode="&#xf2;" horiz-adv-x="1300" d="M654 -22Q581 -22 504 -5T356 51T229 150T139 299T106 502Q106 617 139 704T228 852T356 951T504 1006T654 1024Q727 1024 804 1007T952 951T1079 852T1169 704T1202 502Q1202 386 1169 299T1080 151T952 51T804
-4T654 -22ZM654 246Q692 246 723 261T776 308T811 387T824 502Q824 568 812 616T777 695T723 741T654 756Q617 756 586 741T532 695T497 616T484 502Q484 436 496 388T531 308T585 262T654 246ZM746 1114L374 1428H746L1072 1114H746Z" />
<glyph unicode="&#xf3;" horiz-adv-x="1300" d="M654 -22Q581 -22 504 -5T356 51T229 150T139 299T106 502Q106 617 139 704T228 852T356 951T504 1006T654 1024Q727 1024 804 1007T952 951T1079 852T1169 704T1202 502Q1202 386 1169 299T1080 151T952 51T804
-4T654 -22ZM654 246Q692 246 723 261T776 308T811 387T824 502Q824 568 812 616T777 695T723 741T654 756Q617 756 586 741T532 695T497 616T484 502Q484 436 496 388T531 308T585 262T654 246ZM783 1114H457L783 1428H1155L783 1114Z" />
<glyph unicode="&#xf4;" horiz-adv-x="1300" d="M654 -22Q581 -22 504 -5T356 51T229 150T139 299T106 502Q106 617 139 704T228 852T356 951T504 1006T654 1024Q727 1024 804 1007T952 951T1079 852T1169 704T1202 502Q1202 386 1169 299T1080 151T952 51T804
-4T654 -22ZM654 246Q692 246 723 261T776 308T811 387T824 502Q824 568 812 616T777 695T723 741T654 756Q617 756 586 741T532 695T497 616T484 502Q484 436 496 388T531 308T585 262T654 246ZM486 1123L796 1417H1024L1334 1123H1050L910 1271L770 1123H486Z"
/>
<glyph unicode="&#xf5;" horiz-adv-x="1300" d="M654 -22Q581 -22 504 -5T356 51T229 150T139 299T106 502Q106 617 139 704T228 852T356 951T504 1006T654 1024Q727 1024 804 1007T952 951T1079 852T1169 704T1202 502Q1202 386 1169 299T1080 151T952 51T804
-4T654 -22ZM654 246Q692 246 723 261T776 308T811 387T824 502Q824 568 812 616T777 695T723 741T654 756Q617 756 586 741T532 695T497 616T484 502Q484 436 496 388T531 308T585 262T654 246ZM1017 1080Q969 1080 937 1100T880 1142Q860 1160 840 1173T797 1186Q753
1186 728 1148T694 1078L566 1186Q572 1218 598 1264T670 1346T777 1382Q824 1382 857 1363T917 1320Q940 1301 960 1288T1006 1274Q1046 1274 1071 1312T1106 1382L1232 1272Q1225 1237 1199 1192T1128 1114T1017 1080Z" />
<glyph unicode="&#xf6;" horiz-adv-x="1300" d="M654 -22Q581 -22 504 -5T356 51T229 150T139 299T106 502Q106 617 139 704T228 852T356 951T504 1006T654 1024Q727 1024 804 1007T952 951T1079 852T1169 704T1202 502Q1202 386 1169 299T1080 151T952 51T804
-4T654 -22ZM654 246Q692 246 723 261T776 308T811 387T824 502Q824 568 812 616T777 695T723 741T654 756Q617 756 586 741T532 695T497 616T484 502Q484 436 496 388T531 308T585 262T654 246ZM197 1440H574V1118H197V1440ZM737 1440H1114V1118H737V1440Z" />
<glyph unicode="&#xf7;" horiz-adv-x="1300" d="M186 460V756H1024V460H186ZM596 54Q523 54 472 106T420 234Q420 306 471 358T596 410Q670 410 721 358T772 234Q772 159 721 107T596 54ZM596 812Q523 812 472 864T420 990Q420 1064 471 1116T596 1168Q670 1168
721 1116T772 990Q772 917 721 865T596 812Z" />
<glyph unicode="&#xf8;" horiz-adv-x="1300" d="M181 48L999 1050L1128 956L310 -46L181 48ZM654 -22Q581 -22 504 -5T356 51T229 150T139 299T106 502Q106 617 139 704T228 852T356 951T504 1006T654 1024Q727 1024 804 1007T952 951T1079 852T1169 704T1202
502Q1202 386 1169 299T1080 151T952 51T804 -4T654 -22ZM654 246Q692 246 723 261T776 308T811 387T824 502Q824 568 812 616T777 695T723 741T654 756Q617 756 586 741T532 695T497 616T484 502Q484 436 496 388T531 308T585 262T654 246Z" />
<glyph unicode="&#xf9;" horiz-adv-x="1300" d="M478 -22Q402 -22 337 2T223 76T148 204T121 390V1000H495V448Q495 382 508 342T548 283T617 264Q650 264 676 275T723 306T755 349T771 396L839 354Q839 290 818 224T752 102T639 12T478 -22ZM854 0L768 258V1000H1142V200L1091
270H1252V0H854ZM734 1114L362 1428H734L1060 1114H734Z" />
<glyph unicode="&#xfa;" horiz-adv-x="1300" d="M478 -22Q402 -22 337 2T223 76T148 204T121 390V1000H495V448Q495 382 508 342T548 283T617 264Q650 264 676 275T723 306T755 349T771 396L839 354Q839 290 818 224T752 102T639 12T478 -22ZM854 0L768 258V1000H1142V200L1091
270H1252V0H854ZM771 1114H445L771 1428H1143L771 1114Z" />
<glyph unicode="&#xfb;" horiz-adv-x="1300" d="M478 -22Q402 -22 337 2T223 76T148 204T121 390V1000H495V448Q495 382 508 342T548 283T617 264Q650 264 676 275T723 306T755 349T771 396L839 354Q839 290 818 224T752 102T639 12T478 -22ZM854 0L768 258V1000H1142V200L1091
270H1252V0H854ZM474 1123L784 1417H1012L1322 1123H1038L898 1271L758 1123H474Z" />
<glyph unicode="&#xfc;" horiz-adv-x="1300" d="M478 -22Q402 -22 337 2T223 76T148 204T121 390V1000H495V448Q495 382 508 342T548 283T617 264Q650 264 676 275T723 306T755 349T771 396L839 354Q839 290 818 224T752 102T639 12T478 -22ZM854 0L768 258V1000H1142V200L1091
270H1252V0H854ZM185 1440H562V1118H185V1440ZM725 1440H1102V1118H725V1440Z" />
<glyph unicode="&#xfd;" horiz-adv-x="1300" d="M402 -400L586 72L718 0H416L86 1000H468L690 186H633L860 1000H1236L770 -400H402ZM784 1114H458L784 1428H1156L784 1114Z" />
<glyph unicode="&#xfe;" horiz-adv-x="1300" d="M130 -400V1500H504V-400H130ZM766 -22Q669 -22 595 22T471 133T396 271T371 396L501 442Q502 405 514 372T549 315T599 276T660 262Q716 262 755 292T815 376T836 502Q836 573 816 626T758 708T666 738Q633 738
606 725T556 690T519 640T494 582L376 630Q376 684 401 751T477 880T602 982T776 1022Q893 1022 992 966T1150 795T1210 502Q1210 369 1174 271T1076 107T934 10T766 -22Z" />
<glyph unicode="&#xff;" horiz-adv-x="1300" d="M402 -400L586 72L718 0H416L86 1000H468L690 186H633L860 1000H1236L770 -400H402ZM198 1440H575V1118H198V1440ZM738 1440H1115V1118H738V1440Z" />
<glyph unicode="&#x2013;" horiz-adv-x="1300" d="M178 460V756H1002V460H178Z" />
<glyph unicode="&#x2014;" horiz-adv-x="1300" d="M20 460V756H1176V460H20Z" />
<glyph unicode="&#x2018;" horiz-adv-x="1000" d="M529 1537L676 1359Q635 1339 604 1316T557 1259T540 1169L295 1174Q295 1280 333 1352T426 1470T529 1537ZM672 1174V852H295V1174H672Z" />
<glyph unicode="&#x2019;" horiz-adv-x="1000" d="M457 715L310 893Q352 914 382 936T429 993T446 1083L691 1078Q691 972 653 900T560 783T457 715ZM314 1078V1400H691V1078H314Z" />
<glyph unicode="&#x201a;" horiz-adv-x="1000" d="M420 -363L273 -185Q315 -164 345 -142T392 -85T409 5L654 0Q654 -106 616 -178T523 -295T420 -363ZM277 0V322H654V0H277Z" />
<glyph unicode="&#x201c;" horiz-adv-x="1300" d="M468 1516L615 1338Q574 1318 543 1295T496 1238T479 1148L234 1153Q234 1259 272 1331T365 1449T468 1516ZM611 1153V831H234V1153H611ZM950 1516L1097 1338Q1056 1318 1025 1295T978 1238T961 1148L716 1153Q716
1259 754 1331T847 1449T950 1516ZM1093 1153V831H716V1153H1093Z" />
<glyph unicode="&#x201d;" horiz-adv-x="1300" d="M850 715L703 893Q745 914 775 936T822 993T839 1083L1084 1078Q1084 972 1046 900T953 783T850 715ZM707 1078V1400H1084V1078H707ZM368 715L221 893Q263 914 293 936T340 993T357 1083L602 1078Q602 972 564
900T471 783T368 715ZM225 1078V1400H602V1078H225Z" />
<glyph unicode="&#x201e;" horiz-adv-x="1300" d="M240 -363L93 -185Q135 -164 165 -142T212 -85T229 5L474 0Q474 -106 436 -178T343 -295T240 -363ZM97 0V322H474V0H97ZM774 -363L627 -185Q669 -164 699 -142T746 -85T763 5L1008 0Q1008 -106 970 -178T877 -295T774
-363ZM631 0V322H1008V0H631Z" />
<glyph unicode="&#x2022;" horiz-adv-x="1300" d="M592 320Q494 320 415 366T289 492T242 670Q242 769 288 849T414 975T592 1022Q690 1022 769 976T895 849T942 670Q942 572 896 493T770 367T592 320Z" />
<glyph unicode="&#x2039;" horiz-adv-x="1300" d="M722 164L270 492L386 664L860 342L722 164ZM270 492V682H360V492H270ZM386 512L270 682L722 1010L860 832L386 512Z" />
<glyph unicode="&#x203a;" horiz-adv-x="1300" d="M492 164L354 342L828 664L944 492L492 164ZM944 492H854V682H944V492ZM828 512L354 832L492 1010L944 682L828 512Z" />
</font>
</defs>
</svg>
